<?xml version="1.0" standalone="no"?>
<!DOCTYPE svg PUBLIC "-//W3C//DTD SVG 1.1//EN" "http://www.w3.org/Graphics/SVG/1.1/DTD/svg11.dtd" >
<svg xmlns="http://www.w3.org/2000/svg">
<metadata></metadata>
<defs>
<font id="gibsonbold" horiz-adv-x="1361" >
<font-face units-per-em="2048" ascent="1638" descent="-410" />
<missing-glyph horiz-adv-x="399" />
<glyph unicode="&#xfb01;" horiz-adv-x="1423" d="M10 707v337h123v11q0 195 96 286q112 103 334 103q122 0 277 -31l-21 -307q-72 14 -133 14q-47 0 -69.5 -12.5t-22.5 -42.5v-21h205v-337h-205v-707h-461v707h-123zM864 1300q0 99 67.5 159.5t178.5 60.5q112 0 179 -60t67 -160t-67 -159.5t-179 -59.5q-111 0 -178.5 60 t-67.5 159zM881 0v1044h460v-1044h-460z" />
<glyph unicode="&#xfb02;" horiz-adv-x="1437" d="M10 707v337h123v11q0 195 96 286q112 103 334 103q122 0 277 -31l-21 -307q-72 14 -133 14q-47 0 -69.5 -12.5t-22.5 -42.5v-21h205v-337h-205v-707h-461v707h-123zM891 0v1413h461v-1413h-461z" />
<glyph unicode="&#xfb03;" horiz-adv-x="2160" d="M10 707v337h123v11q0 195 96 286q112 103 334 103q122 0 277 -31l-21 -307q-72 14 -133 14q-47 0 -69.5 -12.5t-22.5 -42.5v-21h307v11q0 195 96 286q112 103 334 103q122 0 277 -31l-21 -307q-72 14 -133 14q-47 0 -69.5 -12.5t-22.5 -42.5v-21h205v-337h-205v-707h-461 v707h-307v-707h-461v707h-123zM1632 1300q0 99 67.5 159.5t178.5 60.5q112 0 179 -60t67 -160t-67 -159.5t-179 -59.5q-111 0 -178.5 60t-67.5 159zM1649 0v1044h460v-1044h-460z" />
<glyph unicode="&#xfb04;" horiz-adv-x="2170" d="M10 707v337h123v11q0 195 96 286q112 103 334 103q92 0 170 -11t107 -20l-21 -307q-72 14 -133 14q-47 0 -69.5 -12.5t-22.5 -42.5v-21h307v11q0 195 96 286q112 103 334 103q92 0 170 -11t107 -20l-21 -307q-72 14 -133 14q-47 0 -69.5 -12.5t-22.5 -42.5v-21h205v-337 h-205v-707h-461v707h-307v-707h-461v707h-123zM1622 0v1413h461v-1413h-461z" />
<glyph horiz-adv-x="2048" />
<glyph horiz-adv-x="2048" />
<glyph unicode="&#xd;" horiz-adv-x="2048" />
<glyph unicode=" "  horiz-adv-x="399" />
<glyph unicode="&#x09;" horiz-adv-x="399" />
<glyph unicode="&#xa0;" horiz-adv-x="399" />
<glyph unicode="!" horiz-adv-x="716" d="M106 199q0 105 68.5 164t183.5 59q113 0 181.5 -59t68.5 -164t-68.5 -163.5t-181.5 -58.5q-115 0 -183.5 58.5t-68.5 163.5zM117 1413h481l-41 -921h-399z" />
<glyph unicode="&#x22;" horiz-adv-x="1198" d="M113 1413h419l-51 -584h-317zM666 1413h419l-51 -584h-317z" />
<glyph unicode="#" horiz-adv-x="1454" d="M92 403v222h246l51 266h-221v219h262l82 420h246l-82 -420h235l82 420h246l-82 -420h205v-219h-246l-51 -266h219v-222h-260l-82 -419h-246l82 419h-235l-82 -419h-246l82 419h-205zM584 625h235l51 266h-235z" />
<glyph unicode="$" d="M147 174l185 297q42 -42 137.5 -83t144.5 -46l11 180l-82 31q-138 52 -221 123q-123 110 -123 287q0 195 149 321q107 96 318 113l6 82h178l-6 -86q92 -7 194 -48.5t164 -95.5l-153 -286q-59 44 -125.5 74t-114.5 38l-10 -180l133 -55q280 -118 280 -379 q0 -112 -49 -197.5t-119 -140.5q-53 -43 -139 -73.5t-147 -35.5l-6 -75h-179l5 71q-109 8 -226.5 50t-204.5 114zM594 1014q0 -50 55 -72l10 137q-27 0 -46 -17.5t-19 -47.5zM762 338q25 3 46 21.5t21 43.5q0 28 -13 45.5t-44 32.5z" />
<glyph unicode="%" horiz-adv-x="1945" d="M61 1038q0 180 110.5 288t289.5 108q178 0 288.5 -108t110.5 -288q0 -179 -110.5 -286t-288.5 -107t-289 107t-111 286zM348 1044q0 -143 113 -143q59 0 88 39t29 104t-29 104.5t-88 39.5q-58 0 -85.5 -39t-27.5 -105zM440 55l885 1399l180 -108l-887 -1397zM1085 362 q0 180 110.5 288t289.5 108q178 0 288.5 -108t110.5 -288q0 -179 -110.5 -286t-288.5 -107t-289 107t-111 286zM1372 369q0 -66 27.5 -105t85.5 -39q59 0 88 39.5t29 104.5t-29 104t-88 39q-113 0 -113 -143z" />
<glyph unicode="&#x26;" horiz-adv-x="1669" d="M61 410q0 131 89 229.5t223 142.5q-133 137 -133 287q0 98 44 172.5t118.5 117.5t161.5 64t184 21q96 0 180 -21t154 -63t110.5 -114t40.5 -167q0 -118 -73.5 -214.5t-176.5 -147.5l123 -123q41 38 99 105.5t89 113.5l308 -184q-49 -75 -120 -155.5t-136 -131.5l323 -322 v-20h-522l-103 102q-110 -73 -208.5 -100t-221.5 -27q-85 0 -163.5 15.5t-150 49.5t-124.5 84t-84 123.5t-31 162.5zM502 420q0 -51 41.5 -82t91.5 -31q110 0 168 45l-199 201l-20 -10q-31 -14 -56.5 -44.5t-25.5 -78.5zM659 1065q0 -14 5 -27.5t13 -24t15 -18t15.5 -14.5 t9.5 -8l35 -37q102 66 102 129q0 38 -25 60t-71 22t-72.5 -22t-26.5 -60z" />
<glyph unicode="'" horiz-adv-x="808" d="M195 1413h419l-51 -584h-317z" />
<glyph unicode="(" horiz-adv-x="788" d="M92 614q0 106 13 208.5t31.5 183t51 166t58.5 142t67.5 127t64.5 105.5t62 92l287 -143q-57 -87 -112 -213.5t-99.5 -311t-44.5 -356.5t44.5 -356.5t99.5 -310.5t112 -213l-287 -144q-39 57 -62 92t-64.5 105.5t-67.5 127t-58.5 142t-51 166t-31.5 183t-13 208.5z" />
<glyph unicode=")" horiz-adv-x="788" d="M61 -266q57 87 112 213t99.5 310.5t44.5 356.5t-44.5 356.5t-99.5 311t-112 213.5l287 143q39 -57 62 -92t64.5 -105.5t67.5 -127t58.5 -142t51 -166t31.5 -183t13 -208.5t-13 -208.5t-31.5 -183t-51 -166t-58.5 -142t-67.5 -127t-64.5 -105.5t-62 -92z" />
<glyph unicode="*" horiz-adv-x="1075" d="M102 1106l72 215l270 -113l-24 277h235l-26 -277l272 113l72 -215l-297 -72l205 -256l-185 -129l-159 273l-158 -273l-184 129l204 256z" />
<glyph unicode="+" horiz-adv-x="1505" d="M164 543v327h424v420h327v-420h426v-327h-426v-420h-327v420h-424z" />
<glyph unicode="," horiz-adv-x="716" d="M10 -287l205 666h430l-256 -666h-379z" />
<glyph unicode="-" horiz-adv-x="788" d="M72 362v349h645v-349h-645z" />
<glyph unicode="." horiz-adv-x="716" d="M106 199q0 105 68.5 164t183.5 59q113 0 181.5 -59t68.5 -164t-68.5 -163.5t-181.5 -58.5q-115 0 -183.5 58.5t-68.5 163.5z" />
<glyph unicode="/" horiz-adv-x="1157" d="M35 -94l835 1739l252 -117l-835 -1739z" />
<glyph unicode="0" d="M51 705q0 116 22.5 221.5t71.5 199t121 161.5t178.5 107.5t235.5 39.5q130 0 236.5 -39.5t179 -107.5t121.5 -161.5t71.5 -199t22.5 -221.5t-22.5 -221.5t-71.5 -199t-121.5 -162t-179 -108t-236.5 -39.5q-129 0 -235.5 39.5t-178.5 108t-121 162t-71.5 199t-22.5 221.5z M502 711q0 -342 178 -342q180 0 180 342q0 338 -180 338q-178 0 -178 -338z" />
<glyph unicode="1" horiz-adv-x="1024" d="M137 1106v307h682v-1413h-446v1106h-236z" />
<glyph unicode="2" d="M92 1239q8 8 24 21t71 46.5t115.5 59.5t156.5 47t196 21q262 0 407.5 -115.5t145.5 -304.5q0 -68 -19 -131t-38.5 -102.5t-69.5 -93t-71 -72t-84 -70.5q-3 -3 -5 -4.5t-5 -4t-5 -4.5l-225 -184h594v-348h-1116l-51 287l460 389q117 98 156 155t39 121q0 61 -43 92 t-121 31q-80 0 -172.5 -40t-165.5 -113z" />
<glyph unicode="3" d="M92 205l195 276q63 -77 164 -115t184 -38q72 0 125 37t53 96q0 60 -43.5 91.5t-114.5 31.5h-143v307h143q57 0 90 25t33 77t-39 77.5t-104 25.5q-175 0 -338 -113l-154 297q99 70 219 112t308 42q107 0 204.5 -27t172.5 -75.5t120 -123t45 -164.5q0 -115 -46.5 -184.5 t-131.5 -111.5q101 -31 163.5 -117.5t62.5 -200.5q0 -111 -50.5 -199.5t-135.5 -142.5t-189.5 -82.5t-218.5 -28.5q-207 0 -357 66.5t-217 161.5z" />
<glyph unicode="4" d="M41 256v338l584 819h526v-809h170v-348h-170v-256h-444v256h-666zM451 594h266v379z" />
<glyph unicode="5" d="M92 205l195 276q62 -76 162 -114.5t176 -38.5q33 0 66.5 8.5t65.5 26.5t52 51.5t20 77.5q0 84 -61.5 123.5t-142.5 39.5q-142 0 -267 -71l-184 112l92 717h942v-348h-594l-20 -133q74 24 174 24q54 0 109 -10.5t113 -32t108 -59t90 -87t63 -120.5t23 -155 q0 -101 -35 -186.5t-93.5 -145.5t-137 -102t-165 -61.5t-177.5 -19.5q-207 0 -356 66.5t-218 161.5z" />
<glyph unicode="6" d="M92 694q0 344 175.5 542t500.5 198q147 0 273 -41t198 -95l-154 -297q-16 10 -44 24t-106.5 38t-146.5 24q-119 0 -187.5 -66.5t-68.5 -193.5q12 12 31 25t58 33t101.5 32.5t137.5 12.5q82 0 158.5 -27.5t138.5 -79t99.5 -135.5t37.5 -188q0 -108 -39 -203t-110.5 -166 t-181 -112.5t-242.5 -41.5q-136 0 -251 49t-199 139.5t-131.5 226.5t-47.5 302zM543 473q0 -66 44.5 -112t112.5 -46t114 46.5t46 111.5q0 67 -46 113.5t-114 46.5t-112.5 -46.5t-44.5 -113.5z" />
<glyph unicode="7" d="M123 1065v348h1055l122 -276l-573 -1137h-491l573 1065h-686z" />
<glyph unicode="8" d="M86 410q0 122 64.5 204.5t181.5 116.5q-93 30 -151 103.5t-58 189.5q0 100 44.5 180t121.5 129t176.5 75t214.5 26q156 0 280 -44t201.5 -138.5t77.5 -227.5q0 -115 -59 -189t-152 -104q117 -34 181.5 -116.5t64.5 -204.5q0 -108 -48.5 -192.5t-131.5 -136t-188.5 -78 t-225.5 -26.5q-95 0 -181.5 16t-162 51t-131 85t-87.5 122t-32 159zM532 455q0 -62 42 -97.5t106 -35.5t106.5 35.5t42.5 97.5q0 63 -42 98t-107 35q-64 0 -106 -34.5t-42 -98.5zM557 993q0 -53 32.5 -82.5t90.5 -29.5q59 0 91 29t32 83t-32 83.5t-91 29.5q-57 0 -90 -29.5 t-33 -83.5z" />
<glyph unicode="9" d="M66 911q0 108 39 203t111 166t181.5 112.5t241.5 41.5q137 0 252.5 -49t199.5 -139.5t131.5 -226.5t47.5 -302q0 -344 -175.5 -542t-500.5 -198q-147 0 -273 41t-198 95l153 297q16 -10 44 -24.5t106.5 -39t146.5 -24.5q118 0 187 67t69 195q-13 -13 -31.5 -25.5 t-57 -32.5t-101 -32.5t-137.5 -12.5q-65 0 -127.5 17t-118.5 52t-98.5 85t-67 121.5t-24.5 154.5zM502 946q0 -66 44.5 -112t112.5 -46t114 46.5t46 111.5q0 67 -46 113.5t-114 46.5t-112.5 -46.5t-44.5 -113.5z" />
<glyph unicode=":" horiz-adv-x="716" d="M106 199q0 105 68.5 164t183.5 59q113 0 181.5 -59t68.5 -164t-68.5 -163.5t-181.5 -58.5q-115 0 -183.5 58.5t-68.5 163.5zM106 844q0 105 68.5 164t183.5 59q113 0 181.5 -59t68.5 -164t-68.5 -163t-181.5 -58q-115 0 -183.5 58t-68.5 163z" />
<glyph unicode=";" horiz-adv-x="716" d="M10 -287l205 666h430l-256 -666h-379zM106 844q0 105 68.5 164t183.5 59q113 0 181.5 -59t68.5 -164t-68.5 -163t-181.5 -58q-115 0 -183.5 58t-68.5 163z" />
<glyph unicode="&#x3c;" horiz-adv-x="1505" d="M164 522v369l1177 389v-358l-727 -215l727 -215v-359z" />
<glyph unicode="=" horiz-adv-x="1505" d="M164 276v328h1177v-328h-1177zM164 809v328h1177v-328h-1177z" />
<glyph unicode="&#x3e;" horiz-adv-x="1505" d="M164 133v359l727 215l-727 215v358l1177 -389v-369z" />
<glyph unicode="?" horiz-adv-x="1177" d="M102 1311q202 123 492 123q212 0 351.5 -113t139.5 -277q0 -119 -34 -185.5t-99 -121.5t-215 -123q-12 -6 -18 -11.5t-8.5 -15.5t-3 -17t-0.5 -27v-51h-390v122q0 78 21 122.5t92 82.5l133 72q8 5 30.5 16.5t32.5 18t24 17.5t20 23t6 27q0 76 -164 76q-153 0 -307 -96z M260 199q0 105 68.5 164t183.5 59q113 0 181.5 -59t68.5 -164t-68.5 -163.5t-181.5 -58.5q-115 0 -183.5 58.5t-68.5 163.5z" />
<glyph unicode="@" horiz-adv-x="1638" d="M72 399q0 161 62.5 301t167.5 236t245 150.5t293 54.5q335 0 532 -178q84 -76 139.5 -189t55.5 -242q0 -257 -144 -405q-61 -60 -140.5 -93.5t-156.5 -33.5t-128 30.5t-66 86.5q-3 -5 -9.5 -13t-28.5 -28t-46 -35.5t-62.5 -28t-78.5 -12.5q-56 0 -107 19t-94.5 57.5 t-69.5 106t-26 155.5q0 124 47.5 225.5t139.5 163t212 61.5q42 0 80 -7.5t60 -16t42 -21t25 -17t10 -9.5l8 41h205l-92 -451q-6 -28 -7.5 -46.5t1.5 -40t17 -32t40 -10.5q64 0 124 90t60 244q0 217 -140.5 344t-391.5 127q-255 0 -419.5 -162.5t-164.5 -421.5 q0 -262 158 -417.5t426 -155.5q139 0 233.5 22.5t206.5 69.5l62 -133q-54 -27 -88.5 -41.5t-102.5 -36t-155.5 -31.5t-196.5 -10q-205 0 -372.5 90.5t-266 259t-98.5 383.5zM635 358q0 -72 33 -121t110 -49q139 0 174 170l41 205q-8 8 -23 18t-49 21.5t-71 11.5 q-98 0 -154 -67q-25 -29 -43 -80t-18 -109z" />
<glyph unicode="A" horiz-adv-x="1454" d="M-20 0l491 1413h512l492 -1413h-502l-55 199h-404l-53 -199h-481zM612 553h209l-104 379z" />
<glyph unicode="B" horiz-adv-x="1351" d="M102 0v1413h584q231 0 358 -51q87 -35 148 -114t61 -193t-60 -198.5t-138 -115.5q125 -34 197.5 -121.5t72.5 -209.5q0 -213 -158 -318q-67 -44 -166 -68t-202 -24h-697zM563 342h154q37 0 57.5 5.5t44.5 21.5q41 26 41 86q0 62 -41 88q-23 15 -43 19.5t-59 4.5h-154 v-225zM563 874h92q40 0 60.5 4.5t42.5 18.5q41 26 41 80q0 56 -41 82q-22 14 -41 17t-62 3h-92v-205z" />
<glyph unicode="C" horiz-adv-x="1300" d="M41 705q0 138 38.5 256t107.5 204.5t163.5 147.5t208.5 91t240 30q89 0 170 -14t133.5 -33.5t92 -39t57.5 -33.5l18 -14l-123 -389q-6 5 -16.5 13.5t-45 29.5t-69.5 37t-86.5 29.5t-100.5 13.5q-139 0 -231 -82.5t-92 -240.5q0 -79 27 -141.5t73 -100t103 -57t120 -19.5 q112 0 198 37.5t140 91.5l133 -368q-179 -179 -501 -179q-126 0 -240 30.5t-208.5 91.5t-163.5 147.5t-107.5 204.5t-38.5 256z" />
<glyph unicode="D" horiz-adv-x="1474" d="M102 0v1413h533q363 0 563 -153q236 -181 236 -553t-236 -553q-201 -154 -563 -154h-533zM563 389h107q143 0 215 72q82 82 82 246q0 178 -82 256q-71 71 -215 71h-107v-645z" />
<glyph unicode="E" horiz-adv-x="1187" d="M102 0v1413h1004v-364h-543v-154h512v-363h-512v-163h563v-369h-1024z" />
<glyph unicode="F" horiz-adv-x="1126" d="M102 0v1413h983v-364h-522v-220h492v-364h-492v-465h-461z" />
<glyph unicode="G" horiz-adv-x="1515" d="M41 707q0 146 41.5 267.5t113 205.5t168.5 142t206.5 85t228.5 27q57 0 110.5 -6t96.5 -15.5t85 -24.5t73 -29t62.5 -33t51.5 -33.5t42.5 -33.5t32.5 -29t24 -25t16 -17l-308 -256q-123 123 -286 123q-128 0 -210.5 -92t-82.5 -256t82.5 -256.5t210.5 -92.5q46 0 83 5.5 t56.5 13t33 15t17.5 12.5l4 6v102h-215v342h666v-618q-31 -28 -40.5 -36.5t-43.5 -37t-52.5 -40t-58 -36t-70 -36t-77.5 -28.5t-92 -25t-102.5 -14t-119.5 -6q-116 0 -223.5 27t-203 85.5t-166.5 143t-112.5 206.5t-41.5 268z" />
<glyph unicode="H" horiz-adv-x="1515" d="M102 0v1413h463v-512h385v512h463v-1413h-463v522h-385v-522h-463z" />
<glyph unicode="I" horiz-adv-x="667" d="M102 0v1413h463v-1413h-463z" />
<glyph unicode="J" horiz-adv-x="665" d="M-102 -344l20 334q65 -21 113 -21q36 0 53.5 16t17.5 66v1362h461v-1362q0 -225 -100.5 -327.5t-298.5 -102.5q-79 0 -159.5 11.5t-106.5 23.5z" />
<glyph unicode="K" horiz-adv-x="1392" d="M102 0v1413h461v-430l297 430h543l-457 -569l488 -844h-553l-236 471l-82 -102v-369h-461z" />
<glyph unicode="L" horiz-adv-x="1064" d="M102 0v1413h461v-1034h481v-379h-942z" />
<glyph unicode="M" horiz-adv-x="1832" d="M61 0l82 1413h594l178 -768l181 768h594l82 -1413h-455l-17 809l-184 -809h-399l-185 809l-16 -809h-455z" />
<glyph unicode="N" horiz-adv-x="1556" d="M102 0v1413h502l410 -788q-10 154 -10 256v532h450v-1413h-481l-430 788q10 -154 10 -256v-532h-451z" />
<glyph unicode="O" horiz-adv-x="1617" d="M41 705q0 225 100.5 392.5t273.5 253t394 85.5t394 -85.5t273.5 -253t100.5 -392.5q0 -169 -58 -308t-161 -230.5t-243.5 -141.5t-305.5 -50t-305.5 50t-243.5 141.5t-161 230.5t-58 308zM506 715q0 -147 83 -238.5t220 -91.5t219 91.5t82 238.5t-82 238t-219 91 t-220 -91t-83 -238z" />
<glyph unicode="P" horiz-adv-x="1280" d="M102 0v1413h615q252 0 393 -113q160 -129 160 -374q0 -244 -160 -373q-141 -113 -393 -113h-152v-440h-463zM563 788h76q74 0 113 25q51 36 51 113q0 79 -51 112q-36 27 -113 27h-76v-277z" />
<glyph unicode="Q" horiz-adv-x="1617" d="M41 705q0 225 100.5 392.5t273.5 253t394 85.5t394 -85.5t273.5 -253t100.5 -392.5q0 -259 -133 -441l153 -172l-276 -246l-172 191q-151 -62 -340 -62q-165 0 -305.5 50t-243.5 141.5t-161 230.5t-58 308zM506 715q0 -147 83 -238.5t220 -91.5l29 2l-39 43l276 246 l31 -35q4 33 4 74q0 147 -82 238t-219 91t-220 -91t-83 -238z" />
<glyph unicode="R" horiz-adv-x="1351" d="M102 0v1413h615q265 0 409 -102q80 -56 127 -146t47 -202q0 -59 -10.5 -112t-25 -91t-38.5 -73.5t-42 -56.5t-46 -43t-40 -29.5t-33 -20.5l317 -537h-532l-225 471h-60v-471h-463zM563 819h117q70 0 102 25q16 11 24.5 19.5t18 29.5t9.5 49t-10 49.5t-18.5 28.5t-23.5 18 q-34 27 -102 27h-117v-246z" />
<glyph unicode="S" horiz-adv-x="1167" d="M0 164l205 348q87 -74 201.5 -114t175.5 -40q48 0 76 15t28 45q0 19 -16.5 34t-34.5 22.5t-51 17.5q-75 20 -205 65q-132 51 -195 105q-129 109 -129 301q0 107 46.5 195t117.5 147q146 122 416 122q139 0 275 -46.5t229 -123.5l-176 -327q-73 64 -171.5 99.5 t-164.5 35.5q-58 0 -86.5 -13t-28.5 -44q0 -7 2 -13t6.5 -11t9 -9t12.5 -8t13.5 -6.5t15 -6t14 -5t14 -4t11.5 -3.5q164 -50 168 -51q155 -51 236 -119q133 -113 133 -307q0 -109 -49 -205.5t-135 -163.5q-159 -121 -418 -121q-290 0 -545 189z" />
<glyph unicode="T" horiz-adv-x="1128" d="M0 1053v360h1128v-360h-333v-1053h-463v1053h-332z" />
<glyph unicode="U" horiz-adv-x="1474" d="M92 604v809h465v-829q0 -107 47 -154q51 -51 133 -51t133 51q45 45 45 154v829h467v-809q0 -165 -37.5 -274t-115.5 -187q-166 -166 -492 -166q-325 0 -491 166q-79 79 -116.5 187.5t-37.5 273.5z" />
<glyph unicode="V" horiz-adv-x="1474" d="M-20 1413h491l266 -819l267 819h491l-532 -1413h-451z" />
<glyph unicode="W" horiz-adv-x="2078" d="M-20 1413h481l174 -788l174 788h461l174 -788l174 788h481l-399 -1413h-471l-191 799l-188 -799h-471z" />
<glyph unicode="X" horiz-adv-x="1474" d="M-41 0l471 737l-446 676h553l200 -379l199 379h553l-445 -676l472 -737h-553l-226 451l-225 -451h-553z" />
<glyph unicode="Y" d="M-41 1413h512l209 -477l211 477h512l-492 -860v-553h-462v553z" />
<glyph unicode="Z" horiz-adv-x="1351" d="M61 0v328l615 716h-594v369h1188v-317l-615 -717h645v-379h-1239z" />
<glyph unicode="[" horiz-adv-x="788" d="M123 -334v1895h563v-199h-211v-1495h211v-201h-563z" />
<glyph unicode="\" horiz-adv-x="1157" d="M53 1518l234 110l815 -1734l-232 -109z" />
<glyph unicode="]" horiz-adv-x="788" d="M102 -133h209v1495h-209v199h564v-1895h-564v201z" />
<glyph unicode="^" horiz-adv-x="1505" d="M178 614l389 871h369l389 -871h-358l-215 512l-215 -512h-359z" />
<glyph unicode="_" horiz-adv-x="1024" d="M0 -174v348h1024v-348h-1024z" />
<glyph unicode="`" horiz-adv-x="1024" d="M256 1413h369l143 -297h-317z" />
<glyph unicode="a" horiz-adv-x="1208" d="M25 317q0 62 19.5 112.5t53.5 84t74.5 58t88.5 38.5t89.5 20.5t83.5 8.5l242 10v10q0 99 -170 99q-84 0 -174.5 -28t-153.5 -64l-112 290q237 109 501 109q157 0 258 -30t172 -93q140 -125 140 -369v-573h-437l-10 92q-117 -117 -266 -117q-61 0 -116.5 10.5t-108 36 t-90.5 64t-61 98t-23 133.5zM485 338q0 -42 30 -62t73 -20q51 0 92 41v129l-92 -6q-43 -2 -73 -21t-30 -61z" />
<glyph unicode="b" horiz-adv-x="1355" d="M86 0v1413h461v-297l-4 -164q4 5 11 12.5t33.5 27t58 34.5t85 27t113.5 12q145 0 255.5 -72.5t168 -195.5t57.5 -277t-57.5 -277t-168 -195.5t-255.5 -72.5q-102 0 -188.5 35.5t-139.5 102.5l6 -113h-436zM532 526q0 -84 47 -131t117 -47q69 0 116.5 47t47.5 131 q0 85 -47.5 133t-116.5 48q-70 0 -117 -47.5t-47 -133.5z" />
<glyph unicode="c" horiz-adv-x="1003" d="M31 520q0 127 46 231.5t125.5 172t182.5 104.5t219 37q105 0 197 -20.5t132 -40.5l40 -21l-72 -348q-38 29 -97 50.5t-128 21.5q-81 0 -136 -48t-55 -133q0 -86 53.5 -132t147.5 -46q55 0 108.5 18t79.5 36l27 18l82 -348q-5 -4 -15 -10.5t-45 -23t-75 -29.5t-106 -23.5 t-138 -10.5q-116 0 -219 37t-182.5 104.5t-125.5 172t-46 231.5z" />
<glyph unicode="d" horiz-adv-x="1355" d="M31 520q0 154 57.5 277t168 195.5t255.5 72.5q60 0 113 -11.5t86 -28.5t57.5 -33.5t34.5 -27.5l10 -12q-4 82 -4 164v297h461v-1413h-436l6 113q-53 -67 -139.5 -102.5t-188.5 -35.5q-145 0 -255.5 72.5t-168 195.5t-57.5 277zM496 526q0 -84 47.5 -131t115.5 -47 q70 0 117 47t47 131q0 86 -47 133.5t-117 47.5q-68 0 -115.5 -48t-47.5 -133z" />
<glyph unicode="e" horiz-adv-x="1202" d="M31 520q0 131 46.5 235.5t127.5 171.5t188.5 102.5t231.5 35.5q247 0 400 -143t153 -379l-7 -129h-686q7 -45 41.5 -72.5t73.5 -36t86 -8.5q163 0 287 82l174 -225q-3 -3 -11 -9q-27 -22 -47 -37t-70 -43t-101 -45t-131 -31t-169 -14q-126 0 -232 35.5t-185.5 102.5 t-124.5 171.5t-45 235.5zM485 655h267q-3 55 -39.5 89t-94.5 34q-56 0 -92 -34t-41 -89z" />
<glyph unicode="f" horiz-adv-x="768" d="M10 707v337h123v11q0 195 96 286q112 103 334 103q122 0 277 -31l-21 -307q-72 14 -133 14q-47 0 -69.5 -12.5t-22.5 -42.5v-21h205v-337h-205v-707h-461v707h-123z" />
<glyph unicode="g" horiz-adv-x="1355" d="M31 -225l174 286q67 -41 164 -71.5t184 -30.5q154 0 215 61q45 45 45 123v21q-102 -113 -301 -113q-94 0 -179 31.5t-153.5 92.5t-108.5 159.5t-40 222.5q0 100 26.5 184.5t72 143.5t107 100t131 60.5t144.5 19.5q192 0 301 -123l-4 102h461v-839q0 -296 -201 -451 q-88 -69 -207.5 -101t-288.5 -32q-160 0 -305.5 44t-236.5 110zM496 553q0 -69 47 -114.5t116 -45.5t116.5 45.5t47.5 114.5q0 68 -47 113t-117 45t-116.5 -44.5t-46.5 -113.5z" />
<glyph unicode="h" horiz-adv-x="1290" d="M86 0v1413h461v-307l-4 -195q96 154 291 154q90 0 158 -22.5t111.5 -62t70.5 -97.5t38 -123t11 -146v-614h-461v512q0 44 -3.5 72t-14 55t-32.5 40t-57 13t-58 -13t-33 -40t-13.5 -55t-3.5 -72v-512h-461z" />
<glyph unicode="i" horiz-adv-x="624" d="M66 1300q0 100 67.5 160t177.5 60q112 0 179 -60t67 -160t-67 -159.5t-179 -59.5q-111 0 -178 60t-67 159zM82 0v1044h461v-1044h-461z" />
<glyph unicode="j" horiz-adv-x="624" d="M-92 -358l10 348q31 -10 82 -10q42 0 62 19.5t20 76.5v968h461v-993q0 -226 -109 -327q-109 -103 -317 -103q-61 0 -113 5.5t-74 10.5zM66 1300q0 100 67.5 160t177.5 60q112 0 179 -60t67 -160t-67 -159.5t-179 -59.5q-111 0 -178 60t-67 159z" />
<glyph unicode="k" horiz-adv-x="1259" d="M86 0v1413h461v-645l221 276h522l-358 -389l368 -655h-522l-164 317l-67 -71v-246h-461z" />
<glyph unicode="l" horiz-adv-x="634" d="M86 0v1413h461v-1413h-461z" />
<glyph unicode="m" horiz-adv-x="1908" d="M82 0v1044h461l-6 -133q107 154 282 154q54 0 97.5 -7.5t86 -25.5t75 -53.5t52.5 -87.5q59 93 135.5 133.5t198.5 40.5q188 0 278.5 -113.5t90.5 -326.5v-625h-461v532q0 81 -20 120.5t-72 39.5t-72 -39.5t-20 -120.5v-532h-461v532q0 81 -20 120.5t-72 39.5t-72 -39.5 t-20 -120.5v-532h-461z" />
<glyph unicode="n" horiz-adv-x="1294" d="M82 0v1044h461l-6 -133q50 71 118 112.5t174 41.5q112 0 190 -33.5t120.5 -97t61 -141t18.5 -179.5v-614h-461v512q0 44 -3.5 72t-14 55t-33.5 40t-58 13t-57 -13t-32 -40t-13.5 -55t-3.5 -72v-512h-461z" />
<glyph unicode="o" horiz-adv-x="1269" d="M31 520q0 170 79 294.5t214.5 187.5t310.5 63t310.5 -63t214.5 -187.5t79 -294.5t-79 -294.5t-214.5 -187.5t-310.5 -63t-310.5 63t-214.5 187.5t-79 294.5zM492 526q0 -81 37.5 -129.5t105.5 -48.5t105.5 48.5t37.5 129.5q0 83 -37.5 132t-105.5 49t-105.5 -49 t-37.5 -132z" />
<glyph unicode="p" horiz-adv-x="1351" d="M82 -358v1402h434l-4 -102q123 123 328 123q145 0 255.5 -72.5t168 -195.5t57.5 -277t-57.5 -277t-168 -195.5t-255.5 -72.5q-211 0 -303 127q6 -51 6 -174v-286h-461zM526 526q0 -84 47.5 -131t116.5 -47q70 0 117 47t47 131q0 86 -47 133.5t-117 47.5q-69 0 -116.5 -48 t-47.5 -133z" />
<glyph unicode="q" horiz-adv-x="1351" d="M31 520q0 154 57.5 277t168 195.5t255.5 72.5q205 0 328 -123l-6 102h436v-1402h-461v286q0 123 4 174q-87 -127 -301 -127q-145 0 -255.5 72.5t-168 195.5t-57.5 277zM496 526q0 -84 47.5 -131t115.5 -47q70 0 117 47t47 131q0 86 -47 133.5t-117 47.5q-68 0 -115.5 -48 t-47.5 -133z" />
<glyph unicode="r" horiz-adv-x="901" d="M82 0v1044h461l-6 -133q50 83 112.5 118.5t149.5 35.5q32 0 57.5 -5.5t35.5 -10.5l9 -5l-20 -419h-21q-60 30 -133 30q-45 0 -83 -18.5t-60 -48.5q-41 -52 -41 -178v-410h-461z" />
<glyph unicode="s" horiz-adv-x="997" d="M8 119l156 270q92 -60 192 -85t148 -25q59 0 59 32q0 8 -7 15.5t-20.5 14.5t-27 12.5t-33 11.5t-32.5 9.5t-31 8.5t-23 6q-63 18 -123 41q-20 7 -37 14.5t-48.5 30t-53 51.5t-38.5 79.5t-17 111.5q0 160 124 255t316 95q256 0 442 -121l-125 -258q-74 47 -156.5 72.5 t-144.5 25.5q-57 0 -57 -34q0 -17 28 -29t85 -27q110 -32 147 -47q95 -37 150 -92q86 -86 86 -229q0 -159 -138 -262q-125 -93 -337 -93q-293 0 -484 146z" />
<glyph unicode="t" horiz-adv-x="829" d="M0 707v337h143v256h461v-256h215v-337h-215v-287q0 -43 20 -57.5t62 -14.5q23 0 48.5 3.5t39.5 6.5l14 4l21 -352q-143 -35 -287 -35q-185 0 -286 91q-93 87 -93 303v338h-143z" />
<glyph unicode="u" horiz-adv-x="1273" d="M76 410v634h461v-552q0 -140 98 -140q96 0 96 140v552h461v-1044h-440l-4 92q-16 -16 -37.5 -32t-58.5 -37.5t-87 -34.5t-104 -13q-110 0 -188 34.5t-119 92.5q-40 57 -59 127t-19 181z" />
<glyph unicode="v" horiz-adv-x="1249" d="M-20 1044h481l168 -542l170 542h471l-426 -1044h-441z" />
<glyph unicode="w" horiz-adv-x="1812" d="M-10 1044h461l133 -552l133 552h379l133 -552l133 552h461l-338 -1044h-441l-139 512l-137 -512h-440z" />
<glyph unicode="x" horiz-adv-x="1300" d="M-41 0l414 543l-373 501h522l127 -256l129 256h522l-374 -501l415 -543h-522l-170 276l-168 -276h-522z" />
<glyph unicode="y" horiz-adv-x="1249" d="M-20 1044h481l168 -542l170 542h471l-430 -1064q-27 -68 -49 -113.5t-57 -96t-74 -80.5t-95 -49.5t-125 -19.5q-105 0 -199.5 15.5t-136.5 31.5l-43 15l93 327q18 -9 63 -19.5t80 -10.5q42 0 63.5 12.5t28.5 48.5z" />
<glyph unicode="z" horiz-adv-x="1095" d="M20 0v256l451 451h-430v337h1014v-245l-441 -441h461v-358h-1055z" />
<glyph unicode="{" horiz-adv-x="788" d="M0 481v267q56 0 89.5 33t33.5 130v349q0 161 70 231t231 70h272v-199h-92q-76 0 -102.5 -26t-26.5 -103v-342q0 -129 -46.5 -189t-131.5 -77v-21q85 -17 131.5 -77t46.5 -189v-344q0 -76 26 -101.5t103 -25.5h92v-201h-272q-161 0 -231 70.5t-70 232.5v348 q0 97 -33.5 130.5t-89.5 33.5z" />
<glyph unicode="|" horiz-adv-x="788" d="M246 -358v1996h297v-1996h-297z" />
<glyph unicode="}" horiz-adv-x="788" d="M92 -133h92q76 0 101.5 25.5t25.5 101.5v344q0 129 48 189t133 77v21q-85 17 -133 77t-48 189v342q0 77 -25.5 103t-101.5 26h-92v199h270q162 0 233 -70t71 -231v-349q0 -97 33 -130t89 -33v-267q-56 0 -89 -33.5t-33 -130.5v-348q0 -161 -71.5 -232t-232.5 -71h-270 v201z" />
<glyph unicode="~" horiz-adv-x="1505" d="M143 727q72 96 175 155.5t214 59.5q44 0 81.5 -5t68.5 -15.5t48 -17t42 -20t27 -14.5q105 -51 174 -51q48 0 107 33t98 80l184 -246q-72 -96 -175 -155.5t-214 -59.5q-44 0 -81.5 5t-68.5 15.5t-47.5 17t-41 20t-27.5 14.5q-105 51 -175 51q-49 0 -106.5 -33t-97.5 -80z " />
<glyph unicode="&#xa1;" horiz-adv-x="716" d="M106 844q0 105 68.5 164t183.5 59q113 0 181.5 -59t68.5 -164t-68.5 -163t-181.5 -58q-115 0 -183.5 58t-68.5 163zM117 -369l41 922h399l41 -922h-481z" />
<glyph unicode="&#xa2;" d="M188 623q0 126 43.5 228t119 167.5t171 103t205.5 45.5v144h209v-150q75 -10 134.5 -28.5t86.5 -36.5l-72 -338q-80 39 -149 51v-369q75 10 160 52l71 -328q-9 -7 -26.5 -17.5t-77.5 -32t-127 -30.5v-145h-209v139q-110 8 -205.5 45.5t-171 103.5t-119 168t-43.5 228z M629 629q0 -118 98 -168v338q-98 -50 -98 -170z" />
<glyph unicode="&#xa3;" d="M113 0v328h225q12 86 14 127l6 129h-184v245h188q-1 5 -5 30.5t-7 47t-5.5 60t-2.5 77.5q0 82 36.5 161t92.5 126q122 103 338 103q119 0 211 -29.5t188 -93.5l-133 -267q-112 72 -215 72q-64 0 -91.5 -35t-27.5 -88q0 -27 5.5 -68t10.5 -69l5 -27h293v-245h-297 q-2 -88 -6 -129l-15 -127h533v-328h-1157z" />
<glyph unicode="&#xa4;" d="M133 424v246h88q-2 27 -2 47v41h-86v246h133q33 115 94.5 200t143 134.5t172 72.5t194.5 23q118 0 223 -26t151 -52l46 -25l-112 -327q-128 86 -256 86q-161 0 -195 -86h277v-246h-345v-88h345v-246h-277q8 -36 55.5 -60t128.5 -24q153 0 287 100l113 -338q-1 -1 -18 -13 t-32 -21t-42.5 -23.5t-60.5 -25t-75.5 -21t-97 -16t-115.5 -5.5q-486 0 -614 447h-123z" />
<glyph unicode="&#xa5;" d="M-10 1413h502l188 -471l190 471h502l-328 -563h226v-246h-375v-88h375v-246h-375v-270h-430v270h-373v246h373v88h-373v246h225z" />
<glyph unicode="&#xa6;" horiz-adv-x="788" d="M246 -360v835h297v-835h-297zM246 803v835h297v-835h-297z" />
<glyph unicode="&#xa7;" horiz-adv-x="1484" d="M164 -154l235 236q41 -58 134.5 -111t173.5 -53q133 0 133 72q0 26 -23.5 53.5t-79.5 48.5l-245 92q-314 119 -314 369q0 57 16.5 108t40 82t47 54.5t40.5 32.5l16 10q-4 3 -9.5 8.5t-21 26t-27 44.5t-21 63.5t-9.5 82.5q0 75 27 136.5t73.5 104t109.5 72t133.5 43 t147.5 13.5q313 0 508 -195l-194 -225q-64 64 -145 98.5t-142 34.5q-119 0 -119 -68q0 -17 7.5 -29.5t32 -26t38 -19t56.5 -21.5q6 -2 9 -3.5t8 -3t9 -3.5l188 -72q65 -24 119 -56t102 -77.5t75.5 -108.5t27.5 -137q0 -57 -17 -106.5t-41 -78.5t-48 -50t-41 -29l-17 -8 q4 -4 10 -10.5t22 -29.5t28 -49t22 -67t10 -84q0 -100 -45 -176.5t-122.5 -122t-171 -68t-199.5 -22.5q-196 0 -327.5 57t-219.5 168zM522 625q0 -36 20 -62.5t83 -50.5l317 -123q21 21 21 62q0 38 -20.5 68t-82.5 54l-317 123q-21 -30 -21 -71z" />
<glyph unicode="&#xa8;" horiz-adv-x="1024" d="M127 1264q0 73 48 118t122 45q73 0 120.5 -45t47.5 -118q0 -72 -48 -118t-120 -46q-74 0 -122 46t-48 118zM557 1264q0 73 48 118t122 45q73 0 120.5 -45t47.5 -118q0 -72 -48 -118t-120 -46q-74 0 -122 46t-48 118z" />
<glyph unicode="&#xa9;" horiz-adv-x="1536" d="M41 707q0 151 56.5 286t153 231.5t231.5 153t286 56.5t286 -56.5t231.5 -153t153 -231.5t56.5 -286t-56.5 -286t-153 -231.5t-231.5 -153t-286 -56.5t-286 56.5t-231.5 153t-153 231.5t-56.5 286zM164 707q0 -172 78 -310.5t216 -216.5t310 -78t310 78t216 216.5 t78 310.5t-78 310t-216 216t-310 78t-310 -78t-216 -216t-78 -310zM348 707q0 197 128.5 318.5t326.5 121.5q190 0 303 -113l-82 -174q-92 92 -215 92q-99 0 -167.5 -62t-68.5 -179q0 -116 68 -178t168 -62q133 0 225 92l82 -174q-123 -123 -313 -123q-198 0 -326.5 122 t-128.5 319z" />
<glyph unicode="&#xaa;" horiz-adv-x="819" d="M66 614q0 44 18 79t44.5 55.5t63.5 34.5t69.5 19.5t66.5 6.5l141 4v6q0 30 -22.5 42.5t-77.5 12.5q-53 0 -114 -16.5t-97 -38.5l-66 178q54 24 139 43t172 19q191 0 273 -76t82 -225v-336h-273l-8 59q-71 -71 -170 -71q-45 0 -85.5 10.5t-76.5 33t-57.5 64t-21.5 96.5z M352 625q0 -52 62 -52q15 0 29 6.5t21 12.5l7 6v82l-61 -4q-58 -6 -58 -51z" />
<glyph unicode="&#xab;" horiz-adv-x="1331" d="M143 522l349 482l208 -144l-239 -338l239 -338l-208 -143zM629 522l348 482l211 -144l-242 -338l242 -338l-211 -143z" />
<glyph unicode="&#xac;" horiz-adv-x="1505" d="M164 758v327h1177v-757h-327v430h-850z" />
<glyph unicode="&#xad;" horiz-adv-x="788" d="M72 362v349h645v-349h-645z" />
<glyph unicode="&#xae;" horiz-adv-x="1536" d="M41 707q0 151 56.5 286t153 231.5t231.5 153t286 56.5t286 -56.5t231.5 -153t153 -231.5t56.5 -286t-56.5 -286t-153 -231.5t-231.5 -153t-286 -56.5t-286 56.5t-231.5 153t-153 231.5t-56.5 286zM164 707q0 -172 78 -310.5t216 -216.5t310 -78t310 78t216 216.5 t78 310.5t-78 310t-216 216t-310 78t-310 -78t-216 -216t-78 -310zM465 276v861h338q153 0 236 -71t83 -196q0 -58 -16.5 -104t-43.5 -73.5t-50.5 -43t-48.5 -24.5l194 -349h-256l-153 318h-64v-318h-219zM684 768h84q63 0 98 20t35 76q0 57 -35.5 78t-97.5 21h-84v-195z " />
<glyph unicode="&#xaf;" horiz-adv-x="1024" d="M127 1161v205h768v-205h-768z" />
<glyph unicode="&#xb0;" horiz-adv-x="921" d="M106 1157q0 146 104 247t251 101t249.5 -101t102.5 -247t-102.5 -247t-249.5 -101t-251 101t-104 247zM297 1157q0 -70 48 -120t116 -50q69 0 118.5 50.5t49.5 119.5t-49.5 118.5t-118.5 49.5t-116.5 -49.5t-47.5 -118.5z" />
<glyph unicode="&#xb1;" horiz-adv-x="1505" d="M164 41v328h1177v-328h-1177zM164 737v328h420v307h338v-307h419v-328h-419v-307h-338v307h-420z" />
<glyph unicode="&#xb2;" horiz-adv-x="921" d="M82 1311q6 5 17 13.5t47.5 29.5t76 37t100.5 29.5t123 13.5q163 0 258 -70t95 -186q0 -55 -17 -101.5t-50.5 -84t-60 -60t-67.5 -51.5l-92 -68h328v-240h-707l-41 189l277 221q75 60 101 91.5t26 58.5q0 55 -76 55q-109 0 -225 -103z" />
<glyph unicode="&#xb3;" horiz-adv-x="921" d="M92 707l144 194q42 -49 105.5 -75.5t109.5 -26.5q40 0 66 15t26 40q0 27 -21.5 42t-60.5 15h-103v209h103q35 0 48 12t13 35q0 41 -71 41q-107 0 -211 -75l-107 202q45 29 82 47.5t106 35t150 16.5q90 0 167.5 -26t129 -81t51.5 -129q0 -70 -23.5 -108.5t-68.5 -65.5 q123 -53 123 -184q0 -88 -57 -154t-139.5 -97.5t-172.5 -31.5q-128 0 -219.5 36t-169.5 114z" />
<glyph unicode="&#xb4;" horiz-adv-x="1024" d="M256 1116l143 297h369l-195 -297h-317z" />
<glyph unicode="&#xb5;" horiz-adv-x="1273" d="M76 -358v1402h461v-552q0 -140 98 -140q96 0 96 140v552h461v-1044h-440l-4 92q-32 -32 -102 -57t-140 -25l26 -368h-456z" />
<glyph unicode="&#xb6;" horiz-adv-x="1484" d="M51 922q0 241 139 366t383 125h809v-287h-82v-1484h-286v1484h-195v-1484h-287v788q-102 4 -188 35.5t-152 90.5t-103.5 152.5t-37.5 213.5z" />
<glyph unicode="&#xb7;" horiz-adv-x="1024" d="M266 600q0 99 67 159t179 60q110 0 178 -60.5t68 -158.5q0 -101 -67.5 -161t-178.5 -60q-113 0 -179.5 60t-66.5 161z" />
<glyph unicode="&#xb8;" horiz-adv-x="1024" d="M281 -307l184 307h276l-143 -307h-317z" />
<glyph unicode="&#xb9;" horiz-adv-x="921" d="M205 1198v215h471v-850h-318v635h-153z" />
<glyph unicode="&#xba;" horiz-adv-x="921" d="M86 735q0 150 105 237t270 87t269 -86.5t104 -237.5t-104 -238t-269 -87t-270 87.5t-105 237.5zM373 737q0 -53 24.5 -82.5t63.5 -29.5t62.5 29.5t23.5 82.5t-23.5 83t-62.5 30t-63.5 -30t-24.5 -83z" />
<glyph unicode="&#xbb;" horiz-adv-x="1331" d="M143 184l240 338l-240 338l209 144l348 -482l-348 -481zM629 184l241 338l-241 338l211 144l348 -482l-348 -481z" />
<glyph unicode="&#xbc;" horiz-adv-x="2048" d="M123 1198v215h471v-850h-318v635h-153zM414 55l886 1399l179 -108l-885 -1397zM1106 154v204l420 492h348v-471h113v-225h-113v-154h-318v154h-450zM1393 379h168v194z" />
<glyph unicode="&#xbd;" horiz-adv-x="2048" d="M102 1198v215h471v-850h-317v635h-154zM383 55l887 1399l178 -106l-885 -1399zM1188 737q6 5 17 13.5t47.5 29.5t76 37t100.5 29.5t123 13.5q163 0 258 -70t95 -186q0 -55 -17 -101.5t-50.5 -84t-60 -60t-67.5 -51.5l-92 -67h328v-240h-707l-41 188l277 222q75 60 101 91 t26 58q0 55 -76 55q-112 0 -226 -102z" />
<glyph unicode="&#xbe;" horiz-adv-x="2048" d="M92 707l144 194q42 -49 105.5 -75.5t109.5 -26.5q40 0 66 15t26 40q0 27 -21.5 42t-60.5 15h-103v209h103q35 0 48 12t13 35q0 41 -71 41q-107 0 -211 -75l-107 202q45 29 82 47.5t106 35t150 16.5q90 0 167.5 -26t129 -81t51.5 -129q0 -70 -23.5 -108.5t-68.5 -65.5 q123 -53 123 -184q0 -88 -57 -154t-139.5 -97.5t-172.5 -31.5q-128 0 -219.5 36t-169.5 114zM532 55l885 1399l180 -108l-886 -1397zM1106 154v204l420 492h348v-471h113v-225h-113v-154h-318v154h-450zM1393 379h168v194z" />
<glyph unicode="&#xbf;" horiz-adv-x="1177" d="M102 0q0 119 34.5 185.5t99.5 121.5q25 21 60.5 43t61.5 35t57 28t36 17q15 7 21.5 17t7.5 19.5t1 35.5v51h389v-123q0 -78 -20.5 -122.5t-91.5 -82.5l-133 -71q-7 -4 -30 -16.5t-32.5 -18.5t-24 -17.5t-20.5 -23.5t-6 -27q0 -78 164 -78q148 0 307 99l102 -338 q-202 -123 -491 -123q-213 0 -352.5 113t-139.5 276zM424 844q0 105 68.5 164t183.5 59q113 0 181.5 -59t68.5 -164t-68.5 -163t-181.5 -58q-115 0 -183.5 58t-68.5 163z" />
<glyph unicode="&#xc0;" horiz-adv-x="1454" d="M-20 0l491 1413h512l492 -1413h-502l-55 199h-404l-53 -199h-481zM393 1772h369l143 -297h-317zM612 553h209l-104 379z" />
<glyph unicode="&#xc1;" horiz-adv-x="1454" d="M-20 0l491 1413h512l492 -1413h-502l-55 199h-404l-53 -199h-481zM547 1475l143 297h369l-195 -297h-317zM612 553h209l-104 379z" />
<glyph unicode="&#xc2;" horiz-adv-x="1454" d="M-20 0l491 1413h512l492 -1413h-502l-55 199h-404l-53 -199h-481zM332 1475l164 297h460l164 -297h-297l-96 163l-98 -163h-297zM612 553h209l-104 379z" />
<glyph unicode="&#xc3;" horiz-adv-x="1454" d="M-20 0l491 1413h512l492 -1413h-502l-55 199h-404l-53 -199h-481zM307 1495q0 110 82 195.5t195 85.5q43 0 78 -8t50 -15t40 -22q9 -5 27 -15.5t28.5 -16.5t26.5 -11t30 -5q70 0 99 89l184 -21q0 -110 -82 -196.5t-195 -86.5q-17 0 -32.5 1.5t-27.5 3t-25 5.5t-20.5 6.5 t-19 8t-16 7.5t-16 8.5t-13.5 7.5q-4 2 -17 10t-19 11t-17.5 8.5t-19.5 8.5t-18.5 5t-20.5 2q-68 0 -96 -86zM612 553h209l-104 379z" />
<glyph unicode="&#xc4;" horiz-adv-x="1454" d="M-20 0l491 1413h512l492 -1413h-502l-55 199h-404l-53 -199h-481zM348 1618q0 72 48 118t120 46q74 0 122 -46t48 -118q0 -73 -48 -118.5t-122 -45.5q-73 0 -120.5 45.5t-47.5 118.5zM612 553h209l-104 379zM768 1618q0 72 48 118t120 46q74 0 122 -46t48 -118 q0 -73 -48 -118.5t-122 -45.5q-73 0 -120.5 45.5t-47.5 118.5z" />
<glyph unicode="&#xc5;" horiz-adv-x="1454" d="M-20 0l491 1413h512l492 -1413h-502l-55 199h-404l-53 -199h-481zM461 1649q0 110 75.5 167.5t190.5 57.5t190.5 -57.5t75.5 -167.5t-75.5 -168t-190.5 -58t-190.5 58t-75.5 168zM612 553h209l-104 379zM625 1649q0 -45 27.5 -69t74.5 -24t74.5 24t27.5 69t-27.5 68.5 t-74.5 23.5t-74.5 -23.5t-27.5 -68.5z" />
<glyph unicode="&#xc6;" horiz-adv-x="2017" d="M-92 0l840 1413h1187v-364h-481v-154h451v-363h-451v-163h502v-369h-963v199h-456l-107 -199h-522zM725 553h268v502z" />
<glyph unicode="&#xc7;" horiz-adv-x="1300" d="M41 705q0 138 38.5 256t107.5 204.5t163.5 147.5t208.5 91t240 30q89 0 170 -14t133.5 -33.5t92 -39t57.5 -33.5l18 -14l-123 -389q-6 5 -16.5 13.5t-45 29.5t-69.5 37t-86.5 29.5t-100.5 13.5q-139 0 -231 -82.5t-92 -240.5q0 -79 27 -141.5t73 -100t103 -57t120 -19.5 q112 0 198 37.5t140 91.5l133 -368q-53 -53 -144.5 -103t-209.5 -63l-127 -295h-399l158 307q-69 17 -136.5 47t-142 88t-130 132.5t-92 188.5t-36.5 249z" />
<glyph unicode="&#xc8;" horiz-adv-x="1187" d="M102 0v1413h1004v-364h-543v-154h512v-363h-512v-163h563v-369h-1024zM317 1772h369l143 -297h-317z" />
<glyph unicode="&#xc9;" horiz-adv-x="1187" d="M102 0v1413h1004v-364h-543v-154h512v-363h-512v-163h563v-369h-1024zM379 1475l143 297h369l-195 -297h-317z" />
<glyph unicode="&#xca;" horiz-adv-x="1187" d="M102 0v1413h1004v-364h-543v-154h512v-363h-512v-163h563v-369h-1024zM209 1475l164 297h461l163 -297h-297l-96 163l-98 -163h-297z" />
<glyph unicode="&#xcb;" horiz-adv-x="1187" d="M102 0v1413h1004v-364h-543v-154h512v-363h-512v-163h563v-369h-1024zM225 1618q0 72 48 118t120 46q74 0 122 -46t48 -118q0 -73 -48 -118.5t-122 -45.5q-73 0 -120.5 45.5t-47.5 118.5zM649 1618q0 72 48 118t122 46q72 0 120 -46t48 -118q0 -73 -47.5 -118.5 t-120.5 -45.5q-74 0 -122 45.5t-48 118.5z" />
<glyph unicode="&#xcc;" horiz-adv-x="667" d="M47 1772h369l143 -297h-317zM102 0v1413h463v-1413h-463z" />
<glyph unicode="&#xcd;" horiz-adv-x="667" d="M102 0v1413h463v-1413h-463zM106 1475l144 297h368l-194 -297h-318z" />
<glyph unicode="&#xce;" horiz-adv-x="667" d="M-61 1475l163 297h461l164 -297h-297l-96 163l-98 -163h-297zM102 0v1413h463v-1413h-463z" />
<glyph unicode="&#xcf;" horiz-adv-x="667" d="M-47 1618q0 72 48 118t120 46q74 0 122 -46t48 -118q0 -73 -48 -118.5t-122 -45.5q-73 0 -120.5 45.5t-47.5 118.5zM102 0v1413h463v-1413h-463zM377 1618q0 72 48 118t122 46q72 0 120 -46t48 -118q0 -73 -47.5 -118.5t-120.5 -45.5q-74 0 -122 45.5t-48 118.5z" />
<glyph unicode="&#xd0;" horiz-adv-x="1474" d="M0 573v287h102v553h533q363 0 563 -153q236 -181 236 -553t-236 -553q-201 -154 -563 -154h-533v573h-102zM563 389h107q143 0 215 72q82 82 82 246q0 178 -82 256q-71 71 -215 71h-107v-174h199v-276h-199v-195z" />
<glyph unicode="&#xd1;" horiz-adv-x="1556" d="M102 0v1413h502l410 -788q-10 154 -10 256v532h450v-1413h-481l-430 788q10 -154 10 -256v-532h-451zM358 1495q0 110 82 195.5t195 85.5q43 0 78 -8t50 -15t40 -22q9 -5 27 -15.5t28.5 -16.5t26.5 -11t30 -5q70 0 99 89l184 -21q0 -110 -81.5 -196.5t-194.5 -86.5 q-17 0 -32.5 1.5t-27.5 3t-25 5.5t-20.5 6.5t-19 8t-16 7.5t-16 8.5t-13.5 7.5q-3 1 -17.5 9.5t-19 11t-17 9t-20 8.5t-18.5 4.5t-21 2.5q-68 0 -96 -86z" />
<glyph unicode="&#xd2;" horiz-adv-x="1617" d="M41 705q0 225 100.5 392.5t273.5 253t394 85.5t394 -85.5t273.5 -253t100.5 -392.5q0 -169 -58 -308t-161 -230.5t-243.5 -141.5t-305.5 -50t-305.5 50t-243.5 141.5t-161 230.5t-58 308zM455 1772h368l144 -297h-318zM506 715q0 -147 83 -238.5t220 -91.5t219 91.5 t82 238.5t-82 238t-219 91t-220 -91t-83 -238z" />
<glyph unicode="&#xd3;" horiz-adv-x="1617" d="M41 705q0 225 100.5 392.5t273.5 253t394 85.5t394 -85.5t273.5 -253t100.5 -392.5q0 -169 -58 -308t-161 -230.5t-243.5 -141.5t-305.5 -50t-305.5 50t-243.5 141.5t-161 230.5t-58 308zM506 715q0 -147 83 -238.5t220 -91.5t219 91.5t82 238.5t-82 238t-219 91 t-220 -91t-83 -238zM649 1475l144 297h368l-194 -297h-318z" />
<glyph unicode="&#xd4;" horiz-adv-x="1617" d="M41 705q0 225 100.5 392.5t273.5 253t394 85.5t394 -85.5t273.5 -253t100.5 -392.5q0 -169 -58 -308t-161 -230.5t-243.5 -141.5t-305.5 -50t-305.5 50t-243.5 141.5t-161 230.5t-58 308zM414 1475l164 297h460l164 -297h-297l-96 163l-98 -163h-297zM506 715 q0 -147 83 -238.5t220 -91.5t219 91.5t82 238.5t-82 238t-219 91t-220 -91t-83 -238z" />
<glyph unicode="&#xd5;" horiz-adv-x="1617" d="M41 705q0 225 100.5 392.5t273.5 253t394 85.5t394 -85.5t273.5 -253t100.5 -392.5q0 -169 -58 -308t-161 -230.5t-243.5 -141.5t-305.5 -50t-305.5 50t-243.5 141.5t-161 230.5t-58 308zM389 1495q0 110 82 195.5t195 85.5q43 0 78 -8t50 -15t40 -22q9 -5 27 -15.5 t28.5 -16.5t26.5 -11t30 -5q69 0 98 89l185 -21q0 -110 -82 -196.5t-195 -86.5q-17 0 -32.5 1.5t-27.5 3t-25 5.5t-20.5 6.5t-19 8t-16 7.5t-16 8.5t-13.5 7.5q-4 2 -17 10t-19 11t-17.5 8.5t-19.5 8.5t-18.5 5t-20.5 2q-69 0 -97 -86zM506 715q0 -147 83 -238.5t220 -91.5 t219 91.5t82 238.5t-82 238t-219 91t-220 -91t-83 -238z" />
<glyph unicode="&#xd6;" horiz-adv-x="1617" d="M41 705q0 225 100.5 392.5t273.5 253t394 85.5t394 -85.5t273.5 -253t100.5 -392.5q0 -169 -58 -308t-161 -230.5t-243.5 -141.5t-305.5 -50t-305.5 50t-243.5 141.5t-161 230.5t-58 308zM428 1618q0 72 48 118t120 46q74 0 122 -46t48 -118q0 -73 -48 -118.5t-122 -45.5 q-73 0 -120.5 45.5t-47.5 118.5zM506 715q0 -147 83 -238.5t220 -91.5t219 91.5t82 238.5t-82 238t-219 91t-220 -91t-83 -238zM852 1618q0 72 48 118t122 46q72 0 120 -46t48 -118q0 -73 -47.5 -118.5t-120.5 -45.5q-74 0 -122 45.5t-48 118.5z" />
<glyph unicode="&#xd7;" horiz-adv-x="1505" d="M168 362l348 345l-348 342l242 241l342 -344l344 344l239 -241l-348 -342l348 -345l-239 -239l-344 342l-342 -342z" />
<glyph unicode="&#xd8;" horiz-adv-x="1617" d="M41 123l135 137q-135 184 -135 445q0 170 58 309t161 231t243.5 141.5t305.5 49.5q241 0 428 -105l145 148l195 -189l-137 -137q137 -182 137 -448q0 -169 -58 -308t-161 -230.5t-243.5 -141.5t-305.5 -50q-241 0 -428 105l-145 -148zM506 715q0 -49 14 -107l410 414 q-58 22 -121 22q-137 0 -220 -91t-83 -238zM700 403q49 -18 109 -18q137 0 219 91.5t82 238.5q0 55 -8 94z" />
<glyph unicode="&#xd9;" horiz-adv-x="1474" d="M92 604v809h465v-829q0 -107 47 -154q51 -51 133 -51t133 51q45 45 45 154v829h467v-809q0 -165 -37.5 -274t-115.5 -187q-166 -166 -492 -166q-325 0 -491 166q-79 79 -116.5 187.5t-37.5 273.5zM393 1772h369l143 -297h-317z" />
<glyph unicode="&#xda;" horiz-adv-x="1474" d="M92 604v809h465v-829q0 -107 47 -154q51 -51 133 -51t133 51q45 45 45 154v829h467v-809q0 -165 -37.5 -274t-115.5 -187q-166 -166 -492 -166q-325 0 -491 166q-79 79 -116.5 187.5t-37.5 273.5zM567 1475l144 297h368l-194 -297h-318z" />
<glyph unicode="&#xdb;" horiz-adv-x="1474" d="M92 604v809h465v-829q0 -107 47 -154q51 -51 133 -51t133 51q45 45 45 154v829h467v-809q0 -165 -37.5 -274t-115.5 -187q-166 -166 -492 -166q-325 0 -491 166q-79 79 -116.5 187.5t-37.5 273.5zM342 1475l164 297h461l163 -297h-296l-97 163l-98 -163h-297z" />
<glyph unicode="&#xdc;" horiz-adv-x="1474" d="M92 604v809h465v-829q0 -107 47 -154q51 -51 133 -51t133 51q45 45 45 154v829h467v-809q0 -165 -37.5 -274t-115.5 -187q-166 -166 -492 -166q-325 0 -491 166q-79 79 -116.5 187.5t-37.5 273.5zM356 1618q0 72 48 118t120 46q74 0 122 -46t48 -118q0 -73 -48 -118.5 t-122 -45.5q-73 0 -120.5 45.5t-47.5 118.5zM780 1618q0 72 48 118t122 46q72 0 120 -46t48 -118q0 -73 -47.5 -118.5t-120.5 -45.5q-74 0 -122 45.5t-48 118.5z" />
<glyph unicode="&#xdd;" d="M-41 1413h512l209 -477l211 477h512l-492 -860v-553h-462v553zM502 1475l143 297h369l-195 -297h-317z" />
<glyph unicode="&#xde;" horiz-adv-x="1280" d="M102 0v1413h463v-190h142q252 0 393 -113q160 -129 160 -373q0 -246 -160 -375q-139 -112 -393 -112h-142v-250h-463zM563 598h62q70 0 112 27q51 33 51 112q0 75 -51 113q-37 24 -112 24h-62v-276z" />
<glyph unicode="&#xdf;" horiz-adv-x="1351" d="M86 0v870q0 199 68 318q64 113 178 174q137 72 354 72q118 0 212.5 -23t154 -59.5t99 -86t55.5 -99t16 -101.5q0 -58 -17 -107.5t-44 -82t-53 -52.5t-50 -30q122 -34 192 -131.5t70 -241.5q0 -116 -41.5 -202.5t-117 -138.5t-174 -77t-220.5 -25q-32 0 -73 5.5t-66 11.5 l-25 6l21 317q34 -10 75 -10q174 0 174 144q0 73 -47.5 108t-126.5 35h-55v307h41q143 0 143 113q0 51 -36 87t-107 36q-79 0 -113 -52q-26 -40 -26 -133v-952h-461z" />
<glyph unicode="&#xe0;" horiz-adv-x="1208" d="M25 317q0 62 19.5 112.5t53.5 84t74.5 58t88.5 38.5t89.5 20.5t83.5 8.5l242 10v10q0 99 -170 99q-84 0 -174.5 -28t-153.5 -64l-112 290q237 109 501 109q157 0 258 -30t172 -93q140 -125 140 -369v-573h-437l-10 92q-117 -117 -266 -117q-61 0 -116.5 10.5t-108 36 t-90.5 64t-61 98t-23 133.5zM276 1413h369l143 -297h-317zM485 338q0 -42 30 -62t73 -20q51 0 92 41v129l-92 -6q-43 -2 -73 -21t-30 -61z" />
<glyph unicode="&#xe1;" horiz-adv-x="1208" d="M25 317q0 62 19.5 112.5t53.5 84t74.5 58t88.5 38.5t89.5 20.5t83.5 8.5l242 10v10q0 99 -170 99q-84 0 -174.5 -28t-153.5 -64l-112 290q237 109 501 109q157 0 258 -30t172 -93q140 -125 140 -369v-573h-437l-10 92q-117 -117 -266 -117q-61 0 -116.5 10.5t-108 36 t-90.5 64t-61 98t-23 133.5zM403 1116l144 297h368l-194 -297h-318zM485 338q0 -42 30 -62t73 -20q51 0 92 41v129l-92 -6q-43 -2 -73 -21t-30 -61z" />
<glyph unicode="&#xe2;" horiz-adv-x="1208" d="M25 317q0 62 19.5 112.5t53.5 84t74.5 58t88.5 38.5t89.5 20.5t83.5 8.5l242 10v10q0 99 -170 99q-84 0 -174.5 -28t-153.5 -64l-112 290q237 109 501 109q157 0 258 -30t172 -93q140 -125 140 -369v-573h-437l-10 92q-117 -117 -266 -117q-61 0 -116.5 10.5t-108 36 t-90.5 64t-61 98t-23 133.5zM219 1116l164 297h461l164 -297h-297l-97 174l-98 -174h-297zM485 338q0 -42 30 -62t73 -20q51 0 92 41v129l-92 -6q-43 -2 -73 -21t-30 -61z" />
<glyph unicode="&#xe3;" horiz-adv-x="1208" d="M25 317q0 62 19.5 112.5t53.5 84t74.5 58t88.5 38.5t89.5 20.5t83.5 8.5l242 10v10q0 99 -170 99q-84 0 -174.5 -28t-153.5 -64l-112 290q237 109 501 109q157 0 258 -30t172 -93q140 -125 140 -369v-573h-437l-10 92q-117 -117 -266 -117q-61 0 -116.5 10.5t-108 36 t-90.5 64t-61 98t-23 133.5zM205 1137q0 110 81.5 195t194.5 85q43 0 78 -8t50 -15t40 -22q7 -4 26.5 -15t29.5 -16.5t26.5 -10.5t30.5 -5q69 0 98 88l184 -20q0 -110 -81.5 -196.5t-194.5 -86.5q-15 0 -28.5 1t-26 3t-22 3.5t-20.5 5.5t-17 6t-16.5 7t-13.5 6.5t-13.5 7.5 t-12.5 7q-3 1 -17.5 9.5t-19 11t-17 9t-20 8.5t-18.5 4.5t-21 2.5q-68 0 -96 -86zM485 338q0 -42 30 -62t73 -20q51 0 92 41v129l-92 -6q-43 -2 -73 -21t-30 -61z" />
<glyph unicode="&#xe4;" horiz-adv-x="1208" d="M25 317q0 62 19.5 112.5t53.5 84t74.5 58t88.5 38.5t89.5 20.5t83.5 8.5l242 10v10q0 99 -170 99q-84 0 -174.5 -28t-153.5 -64l-112 290q237 109 501 109q157 0 258 -30t172 -93q140 -125 140 -369v-573h-437l-10 92q-117 -117 -266 -117q-61 0 -116.5 10.5t-108 36 t-90.5 64t-61 98t-23 133.5zM225 1264q0 73 47.5 118t120.5 45q74 0 122 -45t48 -118q0 -72 -48 -118t-122 -46q-72 0 -120 46t-48 118zM485 338q0 -42 30 -62t73 -20q51 0 92 41v129l-92 -6q-43 -2 -73 -21t-30 -61zM645 1264q0 73 47.5 118t120.5 45q74 0 122 -45t48 -118 q0 -72 -48 -118t-122 -46q-72 0 -120 46t-48 118z" />
<glyph unicode="&#xe5;" horiz-adv-x="1208" d="M25 317q0 62 19.5 112.5t53.5 84t74.5 58t88.5 38.5t89.5 20.5t83.5 8.5l242 10v10q0 99 -170 99q-84 0 -174.5 -28t-153.5 -64l-112 290q237 109 501 109q157 0 258 -30t172 -93q140 -125 140 -369v-573h-437l-10 92q-117 -117 -266 -117q-61 0 -116.5 10.5t-108 36 t-90.5 64t-61 98t-23 133.5zM348 1331q0 104 73 164.5t187 60.5q116 0 189 -60t73 -165t-73 -165t-189 -60q-114 0 -187 60.5t-73 164.5zM485 338q0 -42 30 -62t73 -20q51 0 92 41v129l-92 -6q-43 -2 -73 -21t-30 -61zM512 1331q0 -41 24.5 -66.5t71.5 -25.5q49 0 74 25.5 t25 66.5t-25 66.5t-74 25.5q-47 0 -71.5 -25.5t-24.5 -66.5z" />
<glyph unicode="&#xe6;" horiz-adv-x="1837" d="M25 317q0 62 19.5 112.5t53.5 84t74.5 58t88.5 38.5t89.5 20.5t83.5 8.5l242 10v10q0 99 -170 99q-84 0 -174.5 -28t-153.5 -64l-112 290q237 109 501 109q259 0 369 -82q136 82 324 82q247 0 399.5 -142.5t152.5 -379.5l-6 -129h-686q20 -117 201 -117q163 0 287 82 l174 -225q-3 -3 -11 -9q-27 -22 -47 -37t-70 -43t-101 -45t-131 -31t-169 -14q-262 0 -409 138q-88 -77 -181 -107.5t-239 -30.5q-61 0 -116.5 10.5t-108 36t-90.5 64t-61 98t-23 133.5zM485 338q0 -42 30 -62t73 -20q62 0 123 41q-10 21 -21 63t-14 66l-88 -6 q-103 -8 -103 -82zM1120 655h266q-3 55 -39 89t-94 34q-56 0 -92 -34t-41 -89z" />
<glyph unicode="&#xe7;" horiz-adv-x="1003" d="M31 520q0 127 46 231.5t125.5 172t182.5 104.5t219 37q105 0 197 -20.5t132 -40.5l40 -21l-72 -348q-38 29 -97 50.5t-128 21.5q-81 0 -136 -48t-55 -133q0 -86 53.5 -132t147.5 -46q55 0 108.5 18t79.5 36l27 18l82 -348q-9 -7 -26.5 -18t-75 -33t-119.5 -31l-137 -287 h-369l184 291q-51 12 -102 35t-108 66.5t-100 99.5t-71 140.5t-28 184.5z" />
<glyph unicode="&#xe8;" horiz-adv-x="1202" d="M31 520q0 131 46.5 235.5t127.5 171.5t188.5 102.5t231.5 35.5q247 0 400 -143t153 -379l-7 -129h-686q7 -45 41.5 -72.5t73.5 -36t86 -8.5q163 0 287 82l174 -225q-3 -3 -11 -9q-27 -22 -47 -37t-70 -43t-101 -45t-131 -31t-169 -14q-126 0 -232 35.5t-185.5 102.5 t-124.5 171.5t-45 235.5zM276 1413h369l143 -297h-317zM485 655h267q-3 55 -39.5 89t-94.5 34q-56 0 -92 -34t-41 -89z" />
<glyph unicode="&#xe9;" horiz-adv-x="1202" d="M31 520q0 131 46.5 235.5t127.5 171.5t188.5 102.5t231.5 35.5q247 0 400 -143t153 -379l-7 -129h-686q7 -45 41.5 -72.5t73.5 -36t86 -8.5q163 0 287 82l174 -225q-3 -3 -11 -9q-27 -22 -47 -37t-70 -43t-101 -45t-131 -31t-169 -14q-126 0 -232 35.5t-185.5 102.5 t-124.5 171.5t-45 235.5zM434 1116l144 297h368l-194 -297h-318zM485 655h267q-3 55 -39.5 89t-94.5 34q-56 0 -92 -34t-41 -89z" />
<glyph unicode="&#xea;" horiz-adv-x="1202" d="M31 520q0 131 46.5 235.5t127.5 171.5t188.5 102.5t231.5 35.5q247 0 400 -143t153 -379l-7 -129h-686q7 -45 41.5 -72.5t73.5 -36t86 -8.5q163 0 287 82l174 -225q-3 -3 -11 -9q-27 -22 -47 -37t-70 -43t-101 -45t-131 -31t-169 -14q-126 0 -232 35.5t-185.5 102.5 t-124.5 171.5t-45 235.5zM219 1116l164 297h461l164 -297h-297l-97 174l-98 -174h-297zM485 655h267q-3 55 -39.5 89t-94.5 34q-56 0 -92 -34t-41 -89z" />
<glyph unicode="&#xeb;" horiz-adv-x="1202" d="M31 520q0 131 46.5 235.5t127.5 171.5t188.5 102.5t231.5 35.5q247 0 400 -143t153 -379l-7 -129h-686q7 -45 41.5 -72.5t73.5 -36t86 -8.5q163 0 287 82l174 -225q-3 -3 -11 -9q-27 -22 -47 -37t-70 -43t-101 -45t-131 -31t-169 -14q-126 0 -232 35.5t-185.5 102.5 t-124.5 171.5t-45 235.5zM246 1264q0 73 47.5 118t120.5 45q74 0 122 -45t48 -118q0 -72 -48 -118t-122 -46q-72 0 -120 46t-48 118zM485 655h267q-3 55 -39.5 89t-94.5 34q-56 0 -92 -34t-41 -89zM666 1264q0 73 47.5 118t120.5 45q74 0 122 -45t48 -118q0 -72 -48 -118 t-122 -46q-72 0 -120 46t-48 118z" />
<glyph unicode="&#xec;" horiz-adv-x="624" d="M31 1413h368l144 -297h-318zM82 0v1044h461v-1044h-461z" />
<glyph unicode="&#xed;" horiz-adv-x="624" d="M82 0v1044h461v-1044h-461zM82 1116l143 297h369l-195 -297h-317z" />
<glyph unicode="&#xee;" horiz-adv-x="624" d="M-82 1116l164 297h461l164 -297h-297l-99 174l-96 -174h-297zM82 0v1044h461v-1044h-461z" />
<glyph unicode="&#xef;" horiz-adv-x="624" d="M-68 1264q0 73 48 118t122 45q73 0 120.5 -45t47.5 -118q0 -72 -48 -118t-120 -46q-74 0 -122 46t-48 118zM82 0v1044h461v-1044h-461zM352 1264q0 73 48 118t122 45q73 0 120.5 -45t47.5 -118q0 -72 -48 -118t-120 -46q-74 0 -122 46t-48 118z" />
<glyph unicode="&#xf0;" horiz-adv-x="1269" d="M31 514q0 99 32.5 183.5t85 141.5t119 97.5t133.5 59t131 18.5q32 0 65.5 -5t50.5 -11l18 -5q-21 28 -71 73.5t-85 72.5l-223 -115l-92 174l147 72q-100 69 -168 102l328 164q68 -33 168 -102l241 122l93 -174l-166 -79q96 -80 135 -125q53 -63 89.5 -115t79 -135 t65 -188t22.5 -226q0 -167 -78.5 -290.5t-213.5 -186t-308 -62.5q-172 0 -306.5 62.5t-213 186t-78.5 290.5zM492 522q0 -78 37 -126t100 -48q65 0 102 48t37 126t-37 126t-102 48q-63 0 -100 -48t-37 -126z" />
<glyph unicode="&#xf1;" horiz-adv-x="1294" d="M82 0v1044h461l-6 -133q50 71 118 112.5t174 41.5q112 0 190 -33.5t120.5 -97t61 -141t18.5 -179.5v-614h-461v512q0 44 -3.5 72t-14 55t-33.5 40t-58 13t-57 -13t-32 -40t-13.5 -55t-3.5 -72v-512h-461zM236 1137q0 110 81.5 195t194.5 85q43 0 78 -8t50 -15t40 -22 q7 -4 26.5 -15t29.5 -16.5t26.5 -10.5t30.5 -5q69 0 98 88l184 -20q0 -110 -81.5 -196.5t-194.5 -86.5q-15 0 -28.5 1t-26 3t-22 3.5t-20.5 5.5t-17 6t-16.5 7t-13.5 6.5t-13.5 7.5t-12.5 7q-3 1 -17.5 9.5t-19 11t-17 9t-20 8.5t-18.5 4.5t-21 2.5q-68 0 -96 -86z" />
<glyph unicode="&#xf2;" horiz-adv-x="1269" d="M31 520q0 170 79 294.5t214.5 187.5t310.5 63t310.5 -63t214.5 -187.5t79 -294.5t-79 -294.5t-214.5 -187.5t-310.5 -63t-310.5 63t-214.5 187.5t-79 294.5zM291 1413h364l144 -297h-318zM492 526q0 -81 37.5 -129.5t105.5 -48.5t105.5 48.5t37.5 129.5q0 83 -37.5 132 t-105.5 49t-105.5 -49t-37.5 -132z" />
<glyph unicode="&#xf3;" horiz-adv-x="1269" d="M31 520q0 170 79 294.5t214.5 187.5t310.5 63t310.5 -63t214.5 -187.5t79 -294.5t-79 -294.5t-214.5 -187.5t-310.5 -63t-310.5 63t-214.5 187.5t-79 294.5zM471 1116l143 297h369l-195 -297h-317zM492 526q0 -81 37.5 -129.5t105.5 -48.5t105.5 48.5t37.5 129.5 q0 83 -37.5 132t-105.5 49t-105.5 -49t-37.5 -132z" />
<glyph unicode="&#xf4;" horiz-adv-x="1269" d="M31 520q0 170 79 294.5t214.5 187.5t310.5 63t310.5 -63t214.5 -187.5t79 -294.5t-79 -294.5t-214.5 -187.5t-310.5 -63t-310.5 63t-214.5 187.5t-79 294.5zM240 1116l163 297h461l164 -297h-297l-96 174l-98 -174h-297zM492 526q0 -81 37.5 -129.5t105.5 -48.5 t105.5 48.5t37.5 129.5q0 83 -37.5 132t-105.5 49t-105.5 -49t-37.5 -132z" />
<glyph unicode="&#xf5;" horiz-adv-x="1269" d="M31 520q0 170 79 294.5t214.5 187.5t310.5 63t310.5 -63t214.5 -187.5t79 -294.5t-79 -294.5t-214.5 -187.5t-310.5 -63t-310.5 63t-214.5 187.5t-79 294.5zM215 1137q0 109 82 194.5t195 85.5q43 0 78 -8.5t49 -15t40 -21.5q7 -4 26.5 -15t29.5 -16.5t26.5 -10.5 t30.5 -5q69 0 98 88l185 -20q0 -110 -82 -196.5t-195 -86.5q-15 0 -28.5 1t-26 3t-22 3.5t-20.5 5.5t-17 6t-16.5 7t-13.5 6.5t-13.5 7.5t-12.5 7q-4 2 -17 10t-19 11t-17.5 8.5t-19.5 8.5t-18.5 5t-20.5 2q-69 0 -97 -86zM492 526q0 -81 37.5 -129.5t105.5 -48.5 t105.5 48.5t37.5 129.5q0 83 -37.5 132t-105.5 49t-105.5 -49t-37.5 -132z" />
<glyph unicode="&#xf6;" horiz-adv-x="1269" d="M31 520q0 170 79 294.5t214.5 187.5t310.5 63t310.5 -63t214.5 -187.5t79 -294.5t-79 -294.5t-214.5 -187.5t-310.5 -63t-310.5 63t-214.5 187.5t-79 294.5zM256 1264q0 73 47.5 118t120.5 45q74 0 122 -45t48 -118q0 -72 -48 -118t-122 -46q-72 0 -120 46t-48 118z M492 526q0 -81 37.5 -129.5t105.5 -48.5t105.5 48.5t37.5 129.5q0 83 -37.5 132t-105.5 49t-105.5 -49t-37.5 -132zM676 1264q0 73 47.5 118t120.5 45q74 0 122 -45t48 -118q0 -72 -48 -118t-122 -46q-72 0 -120 46t-48 118z" />
<glyph unicode="&#xf7;" horiz-adv-x="1505" d="M164 543v327h1177v-327h-1177zM530 254q0 91 65.5 156t156.5 65t156 -65t65 -156t-65 -156t-156 -65t-156.5 65t-65.5 156zM530 1157q0 91 65.5 156t156.5 65t156 -65t65 -156t-65 -156t-156 -65t-156.5 65t-65.5 156z" />
<glyph unicode="&#xf8;" horiz-adv-x="1269" d="M31 520q0 170 79 294.5t214.5 187.5t310.5 63q183 0 326 -70l104 101l164 -160l-92 -86q102 -133 102 -330q0 -170 -79 -294.5t-214.5 -187.5t-310.5 -63q-190 0 -332 74l-104 -100l-164 157l94 91q-98 134 -98 323zM471 526q0 -22 2 -34l229 229q-30 10 -63 10 q-74 0 -121 -55t-47 -150zM582 334q24 -12 57 -12q75 0 122.5 55t47.5 149q0 23 -2 33z" />
<glyph unicode="&#xf9;" horiz-adv-x="1273" d="M76 410v634h461v-552q0 -140 98 -140q96 0 96 140v552h461v-1044h-440l-4 92q-16 -16 -37.5 -32t-58.5 -37.5t-87 -34.5t-104 -13q-110 0 -188 34.5t-119 92.5q-40 57 -59 127t-19 181zM297 1413h369l143 -297h-317z" />
<glyph unicode="&#xfa;" horiz-adv-x="1273" d="M76 410v634h461v-552q0 -140 98 -140q96 0 96 140v552h461v-1044h-440l-4 92q-16 -16 -37.5 -32t-58.5 -37.5t-87 -34.5t-104 -13q-110 0 -188 34.5t-119 92.5q-40 57 -59 127t-19 181zM451 1116l143 297h369l-195 -297h-317z" />
<glyph unicode="&#xfb;" horiz-adv-x="1273" d="M76 410v634h461v-552q0 -140 98 -140q96 0 96 140v552h461v-1044h-440l-4 92q-16 -16 -37.5 -32t-58.5 -37.5t-87 -34.5t-104 -13q-110 0 -188 34.5t-119 92.5q-40 57 -59 127t-19 181zM240 1116l163 297h461l164 -297h-297l-96 174l-98 -174h-297z" />
<glyph unicode="&#xfc;" horiz-adv-x="1273" d="M76 410v634h461v-552q0 -140 98 -140q96 0 96 140v552h461v-1044h-440l-4 92q-16 -16 -37.5 -32t-58.5 -37.5t-87 -34.5t-104 -13q-110 0 -188 34.5t-119 92.5q-40 57 -59 127t-19 181zM256 1264q0 73 47.5 118t120.5 45q74 0 122 -45t48 -118q0 -72 -48 -118t-122 -46 q-72 0 -120 46t-48 118zM676 1264q0 73 47.5 118t120.5 45q74 0 122 -45t48 -118q0 -72 -48 -118t-122 -46q-72 0 -120 46t-48 118z" />
<glyph unicode="&#xfd;" horiz-adv-x="1249" d="M-20 1044h481l168 -542l170 542h471l-430 -1064q-27 -68 -49 -113.5t-57 -96t-74 -80.5t-95 -49.5t-125 -19.5q-105 0 -199.5 15.5t-136.5 31.5l-43 15l93 327q18 -9 63 -19.5t80 -10.5q42 0 63.5 12.5t28.5 48.5zM461 1116l143 297h369l-195 -297h-317z" />
<glyph unicode="&#xfe;" horiz-adv-x="1355" d="M86 -358v1771h461v-297l-4 -164q4 5 11 12.5t33.5 27t58 34.5t85 27t113.5 12q145 0 255.5 -72.5t168 -195.5t57.5 -277t-57.5 -277t-168 -195.5t-255.5 -72.5q-210 0 -301 127q4 -81 4 -163v-297h-461zM532 526q0 -84 47 -131t117 -47q69 0 116.5 47t47.5 131 q0 85 -47.5 133t-116.5 48q-70 0 -117 -47.5t-47 -133.5z" />
<glyph unicode="&#xff;" horiz-adv-x="1249" d="M-20 1044h481l168 -542l170 542h471l-430 -1064q-27 -68 -49 -113.5t-57 -96t-74 -80.5t-95 -49.5t-125 -19.5q-105 0 -199.5 15.5t-136.5 31.5l-43 15l93 327q18 -9 63 -19.5t80 -10.5q42 0 63.5 12.5t28.5 48.5zM250 1264q0 73 48 118t122 45q73 0 120.5 -45t47.5 -118 q0 -72 -48 -118t-120 -46q-74 0 -122 46t-48 118zM670 1264q0 73 48 118t122 45q73 0 120.5 -45t47.5 -118q0 -72 -48 -118t-120 -46q-74 0 -122 46t-48 118z" />
<glyph unicode="&#x152;" horiz-adv-x="2017" d="M41 705q0 225 100.5 392.5t273.5 253t394 85.5q111 0 205 -23h921v-364h-491v-154h461v-363h-461v-163h512v-369h-932q-78 -25 -215 -25q-165 0 -305.5 50t-243.5 141.5t-161 230.5t-58 308zM506 715q0 -147 83 -238.5t220 -91.5q104 0 174 35v594q-60 30 -174 30 q-137 0 -220 -91t-83 -238z" />
<glyph unicode="&#x153;" horiz-adv-x="1939" d="M31 520q0 170 79 294.5t214.5 187.5t310.5 63q225 0 369 -102q77 54 160 78t198 24q247 0 400 -143t153 -379l-6 -129h-686q7 -45 41.5 -72.5t73 -36t85.5 -8.5q163 0 287 82l174 -225l-18 -14q-18 -15 -25 -20.5t-30 -22t-39 -24.5t-45.5 -23.5t-55.5 -24t-63 -19.5 t-74 -17t-83 -10t-95 -4q-231 0 -359 101q-140 -101 -362 -101q-175 0 -310.5 63t-214.5 187.5t-79 294.5zM492 526q0 -81 37.5 -129.5t105.5 -48.5t105.5 48.5t37.5 129.5q0 83 -37.5 132t-105.5 49t-105.5 -49t-37.5 -132zM1223 655h266q-3 55 -39 89t-94 34 q-56 0 -92 -34t-41 -89z" />
<glyph unicode="&#x178;" d="M-41 1413h512l209 -477l211 477h512l-492 -860v-553h-462v553zM299 1618q0 72 48 118t122 46q72 0 120 -46t48 -118q0 -73 -47.5 -118.5t-120.5 -45.5q-74 0 -122 45.5t-48 118.5zM725 1618q0 72 48 118t120 46q74 0 122 -46t48 -118q0 -73 -48 -118.5t-122 -45.5 q-73 0 -120.5 45.5t-47.5 118.5z" />
<glyph unicode="&#x2c6;" horiz-adv-x="1024" d="M117 1116l164 297h460l164 -297h-297l-96 174l-98 -174h-297z" />
<glyph unicode="&#x2dc;" horiz-adv-x="1024" d="M92 1137q0 109 82 194.5t195 85.5q43 0 78 -8t50 -15t40 -22q8 -4 26.5 -15t29 -16.5t26.5 -10.5t30 -5q70 0 99 88l184 -20q0 -110 -82 -196.5t-195 -86.5q-15 0 -28.5 1t-26 3t-22 3.5t-20.5 5.5t-17 6t-16.5 7t-13.5 6.5t-13.5 7.5t-12.5 7q-4 2 -17 10t-19 11 t-17.5 8.5t-19.5 8.5t-18.5 5t-20.5 2q-69 0 -97 -86z" />
<glyph unicode="&#x2000;" horiz-adv-x="937" />
<glyph unicode="&#x2001;" horiz-adv-x="1874" />
<glyph unicode="&#x2002;" horiz-adv-x="937" />
<glyph unicode="&#x2003;" horiz-adv-x="1874" />
<glyph unicode="&#x2004;" horiz-adv-x="624" />
<glyph unicode="&#x2005;" horiz-adv-x="468" />
<glyph unicode="&#x2006;" horiz-adv-x="312" />
<glyph unicode="&#x2007;" horiz-adv-x="312" />
<glyph unicode="&#x2008;" horiz-adv-x="234" />
<glyph unicode="&#x2009;" horiz-adv-x="374" />
<glyph unicode="&#x200a;" horiz-adv-x="104" />
<glyph unicode="&#x2010;" horiz-adv-x="788" d="M72 362v349h645v-349h-645z" />
<glyph unicode="&#x2011;" horiz-adv-x="788" d="M72 362v349h645v-349h-645z" />
<glyph unicode="&#x2012;" horiz-adv-x="788" d="M72 362v349h645v-349h-645z" />
<glyph unicode="&#x2013;" horiz-adv-x="1024" d="M0 369v338h1024v-338h-1024z" />
<glyph unicode="&#x2014;" horiz-adv-x="2048" d="M51 369v338h1946v-338h-1946z" />
<glyph unicode="&#x2018;" horiz-adv-x="808" d="M113 829l235 584h379l-184 -584h-430z" />
<glyph unicode="&#x2019;" horiz-adv-x="808" d="M82 829l184 584h430l-235 -584h-379z" />
<glyph unicode="&#x201a;" horiz-adv-x="808" d="M82 -246l184 584h430l-235 -584h-379z" />
<glyph unicode="&#x201c;" horiz-adv-x="1331" d="M123 829l235 584h359l-185 -584h-409zM645 829l236 584h358l-184 -584h-410z" />
<glyph unicode="&#x201d;" horiz-adv-x="1331" d="M92 829l184 584h410l-235 -584h-359zM614 829l185 584h409l-235 -584h-359z" />
<glyph unicode="&#x201e;" horiz-adv-x="1331" d="M92 -246l184 584h410l-235 -584h-359zM614 -246l185 584h409l-235 -584h-359z" />
<glyph unicode="&#x2022;" d="M307 748q0 154 109.5 263t263.5 109t264.5 -109.5t110.5 -262.5q0 -154 -110.5 -264.5t-264.5 -110.5t-263.5 110.5t-109.5 264.5z" />
<glyph unicode="&#x2026;" horiz-adv-x="2048" d="M106 199q0 105 68.5 164t183.5 59q113 0 181.5 -59t68.5 -164t-68.5 -163.5t-181.5 -58.5q-115 0 -183.5 58.5t-68.5 163.5zM772 199q0 105 68.5 164t183.5 59q113 0 181.5 -59t68.5 -164t-68.5 -163.5t-181.5 -58.5q-115 0 -183.5 58.5t-68.5 163.5zM1438 199 q0 105 68.5 164t183.5 59q113 0 181 -59t68 -164t-68 -163.5t-181 -58.5q-115 0 -183.5 58.5t-68.5 163.5z" />
<glyph unicode="&#x202f;" horiz-adv-x="374" />
<glyph unicode="&#x2039;" horiz-adv-x="849" d="M143 522l349 482l215 -150l-242 -332l242 -334l-215 -147z" />
<glyph unicode="&#x203a;" horiz-adv-x="849" d="M143 188l240 334l-240 332l215 150l349 -482l-349 -481z" />
<glyph unicode="&#x205f;" horiz-adv-x="468" />
<glyph unicode="&#x20ac;" d="M133 424v246h88q-2 27 -2 47v41h-86v246h133q33 115 94.5 200t143 134.5t172 72.5t194.5 23q118 0 223 -26t151 -52l46 -25l-112 -327q-128 86 -256 86q-161 0 -195 -86h277v-246h-345v-88h345v-246h-277q8 -36 55.5 -60t128.5 -24q153 0 287 100l113 -338q-1 -1 -18 -13 t-32 -21t-42.5 -23.5t-60.5 -25t-75.5 -21t-97 -16t-115.5 -5.5q-486 0 -614 447h-123z" />
<glyph unicode="&#x2122;" horiz-adv-x="1894" d="M92 1233v180h649v-180h-215v-680h-219v680h-215zM782 553l52 860h296l144 -543h6l143 543h297l52 -860h-226l-20 563h-6l-148 -563h-190l-148 563h-6l-20 -563h-226z" />
<glyph unicode="&#xe000;" horiz-adv-x="1044" d="M0 0v1044h1044v-1044h-1044z" />
</font>
</defs>
</svg>
