<?xml version="1.0" standalone="no"?>
<!DOCTYPE svg PUBLIC "-//W3C//DTD SVG 1.1//EN" "http://www.w3.org/Graphics/SVG/1.1/DTD/svg11.dtd">
<svg xmlns="http://www.w3.org/2000/svg">
<metadata>Generated by Fontastic.me</metadata>
<defs>
<font id="untitled-font-6" horiz-adv-x="512">
<font-face font-family="untitled-font-6" units-per-em="512" ascent="480" descent="-32"/>
<missing-glyph horiz-adv-x="512" />

<glyph glyph-name="add-to-cart" unicode="&#97;" d="M443 323c-13-3-18-18-26-31-13-26-23-49-38-72-5-8-15-31-23-33-10-3-26 0-39 0l-38 0c-26 0-56-3-72 5-20 10-23 44-28 69-2 21-7 41-13 59-7 41-10 84-33 108-8 7-18 12-31 15-18 8-53 13-61-5l0-23c10-21 36-11 51-18 16-8 18-31 21-51 7-39 15-77 23-113 5-26 10-49 25-64 13-15 36-26 62-28 36-3 77 0 112 0 11 0 26-3 39 0 13 2 25 20 33 31 23 30 38 66 56 99 3 8 8 16 11 21 0 20-13 33-31 31z m-177-49c5-5 16-21 23-18 5 0 8 5 13 8 18 18 36 36 51 53 3 6 18 18 16 26-3 13-31 5-46 8 0 25-3 48-6 74-10 10-43 10-53 0-3-23-3-49-5-74-18-3-47 7-49-8-3-8 10-20 15-26 13-15 26-28 41-43z m-59-151c-23-3-46-33-28-62 21-33 85-20 77 29-3 18-20 35-49 33z m149 0c-21-3-36-18-36-39 0-23 20-43 44-40 17 0 38 15 38 40 2 24-18 41-46 39z"/>
<glyph glyph-name="comment" unicode="&#99;" d="M133 72c-2 0-5 0-8 0-12 2-25 0-30 10-5 15 7 28 15 36 10 7 23 18 28 25 3 5 5 11 5 18 0 8-10 16-15 21-18 20-28 46-31 79-7 49 13 82 36 108 23 25 54 46 92 56 41 10 92 5 126-10 33-16 61-39 79-69 18-31 28-75 13-121-13-36-36-64-64-82-31-20-67-33-118-30-5 0-15 2-20 2-3 0-8-5-11-7-28-21-56-31-97-36z m82 56c8 5 15 13 23 13 5 0 13 0 18-3 44-5 82 8 108 23 28 18 56 49 61 92 5 52-21 87-44 108-28 23-64 41-117 38-64 0-110-35-131-79-13-26-13-59-5-87 8-21 18-33 31-46 5-5 10-10 13-15 2-18-6-34-13-44-8-10-16-18-23-26 0 0-3 0-3-2 36 2 59 13 82 28z"/>
<glyph glyph-name="compare" unicode="&#100;" d="M195 353c46 3 99-2 151 0l0-51c23 21 46 49 71 72-23 25-46 51-69 74 0-15 0-36 0-51-54-3-105 2-148 0-41 0-75-18-95-41-31-31-54-97-28-156 13 10 23 23 36 36-13 64 30 115 82 117z m248-43c-8-8-33-28-33-36 0-5 2-10 2-15 0-54-36-98-87-100-43-3-100 2-151 0l0 51c-23-23-49-49-72-74 21-21 44-44 64-64 3-3 6-8 8-8 0 15 0 36 0 51 54 3 105-2 149 0 38 3 69 21 92 44 30 28 53 92 28 151z"/>
<glyph glyph-name="customers" unicode="&#101;" d="M49 251c18 0 33 5 43 13 13 10 16 30 28 43 13 16 36 28 49 44 10 10 18 30 20 48 3 8 0 16 6 18 10 3 20-15 20-20 3-26-15-44-20-64-3-8-3-18 0-26 10-20 46-7 69-5 15 3 33 5 43 0 8-2 10-10 10-18l16 0c0 3 2 8 0 13-5 28-44 26-77 20-15-7-31-12-46-7-5 36 38 66 15 105-5 10-18 20-33 18-13-3-15-16-18-31-8-44-38-54-64-79-13-16-18-44-33-52-8-5-21-5-31-5l0-7c3 0 0-6 3-8z m210-126c-26 0-54 0-77 3-51 5-82 31-133 28 0-2 0-8 0-10l0-5c53 0 84-23 138-28 23-3 54-3 79-3 31 3 67 10 69 38l-15 0c-5-20-38-20-61-23z m-36 59c-3-2-11-5-16-5-5 0-7 0-12 3l0-18c2 0 7 0 12 0 18 0 31 5 39 15 7 10 13 26 13 44 0 10-3 18-6 23-2 7-7 13-12 15-5 5-13 5-21 5-10 0-18-2-25-10-6-5-11-15-11-26 0-10 3-18 8-23 5-5 13-7 20-7 6 0 11 0 13 2 3 3 8 5 11 10 0-7-3-15-6-17-2-3-2-11-7-11z m10 36c-3-2-8-5-10-5-5 0-8 3-11 5-2 3-2 8-2 13 0 5 0 10 2 13 3 2 6 5 11 5 5 0 7-3 10-5 3-3 5-8 5-13 0-5-2-10-5-13z m87 41c-5 3-13 5-20 5-11 0-18-2-26-10-5-5-10-15-10-26 0-10 2-18 7-23 5-5 13-7 21-7 5 0 10 0 13 2 2 3 7 5 10 10 0-7-3-15-5-17-3-3-5-8-10-11-6-2-8-5-13-5-5 0-8 0-13 3l0-18c2 0 8 0 13 0 18 0 30 5 38 15 8 10 13 26 13 44 0 10-3 18-5 23-3 7-8 13-13 15z m-8-41c-2-2-7-5-10-5-5 0-8 3-10 5-3 3-3 8-3 13 0 5 0 10 3 13 2 2 5 5 10 5 5 0 8-3 10-5 3-3 5-8 5-13 0-5-2-10-5-13z m146-2c-5 5-10 7-18 7-15 0-23-10-23-30 0-11 3-18 5-23 6-6 11-8 18-8 8 0 13 2 18 8 5 5 5 12 5 23 3 10 0 17-5 23z m-18-41c-2 0-5 2-5 5 0 2-2 7-2 13 0 5 0 10 2 12 0 3 3 5 5 5 5 0 8-5 8-17 0-11-3-18-8-18z m-51 35c5 6 5 13 5 24 0 10-2 17-5 23-2 5-10 7-18 7-15 0-23-10-23-30 0-11 3-18 5-24 3-5 11-7 18-7 8 0 13 2 18 7z m-23 11c0 2-2 7-2 13 0 5 0 10 2 12 0 3 3 5 5 5 5 0 8-5 8-17 0-13-3-18-8-18-2 0-5 2-5 5z m59 43l-56-102 18 0 56 102z"/>
<glyph glyph-name="dollar" unicode="&#102;" d="M271 440c0-10 0-20 0-30 49-8 82-31 87-87-18 0-35 0-53 0-3 23-11 35-31 38-3-21 0-49 0-72 51-13 102-36 95-107-5-49-49-74-95-77 0-10 0-23 0-33-8 0-15 0-23 0 0 10 0 23 0 33-59 5-92 38-95 100 18 0 36 0 54 0 0-33 15-46 41-54 2 26 0 56 0 82-26 10-56 15-72 36-15 18-23 38-20 61 5 51 43 74 89 80 3 7 0 23 3 30 5 0 13 0 20 0z m-56-125c5-13 21-18 33-21 0 21 0 44 0 64-25 3-43-18-33-43z m56-161c31 0 54 33 36 58-5 8-23 16-36 18 0-25 0-51 0-76z"/>
<glyph glyph-name="favorites" unicode="&#103;" d="M256 397c20 23 49 48 87 54 69 10 118-34 133-85 8-28 8-66-2-95-29-76-100-120-157-171-7-8-17-18-28-26-7-7-18-25-30-25-11 0-18 10-26 20-51 56-123 95-166 159-23 33-44 92-26 146 15 43 51 77 107 79 54 3 82-28 108-56z m138-172c21 21 44 49 49 85 5 43-13 77-41 92-10 5-28 10-46 10-23-2-44-18-56-28-6-5-13-13-21-20-8-8-10-18-23-18-10 0-18 10-23 18-8 7-15 15-21 20-15 13-33 28-58 28-49-2-80-36-82-82-3-33 10-59 25-79 41-59 115-100 159-154 41 46 92 82 138 128z"/>
<glyph glyph-name="grid-view" unicode="&#104;" d="M77 474c-36 0-64-29-64-64 0-36 28-64 64-64 36 0 64 28 64 64 0 35-28 64-64 64z m179 0c-36 0-64-29-64-64 0-36 28-64 64-64 36 0 64 28 64 64 0 35-28 64-64 64z m179-128c36 0 64 28 64 64 0 35-28 64-64 64-36 0-64-29-64-64 0-36 28-64 64-64z m-358-26c-36 0-64-28-64-64 0-36 28-64 64-64 36 0 64 28 64 64 0 36-28 64-64 64z m179 0c-36 0-64-28-64-64 0-36 28-64 64-64 36 0 64 28 64 64 0 36-28 64-64 64z m179 0c-36 0-64-28-64-64 0-36 28-64 64-64 36 0 64 28 64 64 0 36-28 64-64 64z m-358-154c-36 0-64-28-64-64 0-35 28-64 64-64 36 0 64 29 64 64 0 36-28 64-64 64z m179 0c-36 0-64-28-64-64 0-35 28-64 64-64 36 0 64 29 64 64 0 36-28 64-64 64z m179 0c-36 0-64-28-64-64 0-35 28-64 64-64 36 0 64 29 64 64 0 36-28 64-64 64z"/>
<glyph glyph-name="list-view" unicode="&#105;" d="M79 466c-33 0-61-28-61-62 0-33 28-61 61-61 34 0 62 28 62 61-3 36-28 62-62 62z m0-146c-33 0-61-28-61-61 0-34 28-62 61-62 34 0 62 28 62 62-3 35-28 61-62 61z m0-146c-33 0-61-28-61-61 0-34 28-62 61-62 34 0 62 28 62 62 0 33-28 61-62 61z m389-23l-268 0c-21 0-36-15-36-36 0-20 15-38 36-38l268 0c21 0 36 15 36 36 0 20-18 38-36 38z m0 146l-268 0c-21 0-36-15-36-36 0-20 15-36 36-36l268 0c21 0 36 16 36 36 0 21-18 36-36 36z m-268 72l268 0c21 0 36 15 36 35 0 21-15 36-36 36l-268 0c-21 3-36-12-36-33 0-20 15-38 36-38z"/>
<glyph glyph-name="phone" unicode="&#107;" d="M410 161c0 0 0-2 0 0 0-10-6-15-11-20-12-13-23-23-38-31-21-10-51-10-74 0-41 15-72 49-98 82-12 18-25 36-35 54-11 20-21 43-23 69-8 49 10 82 33 102 8 8 13 18 25 18 16 0 29-23 34-33 7-10 18-28 18-46-3-26-31-31-39-51-2-8 0-18 3-26 2-10 10-20 15-31 13-18 26-36 44-48 7-5 18-16 30-13 11 2 16 10 21 18 8 5 13 13 20 15 18 5 34-10 44-20 13-11 28-21 31-39z"/>
<glyph glyph-name="returning" unicode="&#108;" d="M276 435c0 8 6 21-2 23l-26 0c-128-7-230-143-174-284 5-13 13-23 16-36-18 0-41 23-54 5 5-15 25-18 41-23 15-5 36-7 48-15-2 10 23 95 6 100-21 5-13-39-18-57-8-5-8 8-11 13-71 126 29 297 174 274z m44 13c-8 0-10 5-20 3 0-6-3-13-3-18 5-3 13-3 18-5 2 7 5 15 5 20z m38-18c-5 3-10 8-18 10-2-7-5-12-7-18 5-2 10-7 18-7 2 5 7 7 7 15z m34-31c0-33-18-71-5-99 23 2 12 38 17 58 90-117-7-314-163-289 0-8-3-10-3-20 131-5 233 84 220 225-2 36-20 66-30 92 12 0 51-26 53-2 3 17-82 28-89 35z m-233-325c5-2 13-5 18-10 0 8 5 10 7 18-5 2-10 8-18 8 0-8-7-8-7-16z m38-18c8 0 10-5 21-5 0 5 2 13 2 18-5 3-13 3-18 5 0-5-5-10-5-18z"/>
<glyph glyph-name="search" unicode="&#109;" d="M456 69l-85 85c28 33 44 74 44 120 0 102-80 184-179 184-100 0-180-82-180-184 0-102 80-184 180-184 38 0 76 12 104 35l88-87z m-379 205c0 90 71 161 159 161 87 0 158-71 158-161 0-90-71-161-158-161-88 0-159 71-159 161z"/>
<glyph glyph-name="shopping-bag" unicode="&#110;" d="M417 361l-71 0 0 18c0 51-41 92-93 92-51 0-94-41-94-92l0-92 36 0 0 36 74 0 0 38-72 0 0 18c0 31 23 54 56 54 31 0 54-23 54-54l0-92 36 0 0 36 41 0 18-256-297 0 15 256 3 0 0 38-36 0-23-330 371 0z"/>
<glyph glyph-name="support" unicode="&#111;" d="M248 445c5 0 11 0 18 0 77-10 123-53 136-128 5-5 13-10 15-17 26-8 36-31 41-59 0-5 0-13 0-18-5-28-15-51-41-59-5-5-10-13-15-16-5-38-26-61-64-66-8 0-21 2-31 0-7-3-13-18-23-15-15 0-28 0-43 0-26 2-31 41-5 48 7 3 46 3 53 0 8-2 13-10 16-15 33-3 59 2 71 20 3 5 11 21 8 28-3 6-10 8-15 16-5 13-3 46-3 69 0 10 0 23 0 36 0 23 0 41 15 46-5 36-20 64-43 82-23 20-54 33-95 31-64-3-105-49-115-113 23-8 15-46 15-85 0-35 8-89-28-84-10 0-15 10-20 18-26 8-36 31-41 59 0 5 0 13 0 18 5 28 15 51 41 59 5 7 13 12 18 17 12 75 59 118 135 128z m-135-145c-3-31-3-70-3-103 0-10-2-23 3-33 5 0 5 0 10 0 8 8 5 20 5 31 0 33 0 71-3 102-2 5-10 5-12 3z m274 0c-3-31-3-70-3-103 0-10-3-23 3-33 5 0 5 0 10 0 5 8 2 20 2 31 0 33 0 71-2 102 0 5-8 5-10 3z m-292-118c0 33 0 69 0 102-31-15-31-89 0-102z m322 0c31 13 31 89 0 102 0-36-2-72 0-102z m-184-98c13-2 41-5 54 0 2 3 2 8 0 13-13 0-67 11-54-13z"/>
<glyph glyph-name="tag" unicode="&#112;" d="M458 392c0 12 3 30-2 41-5 10-13 15-26 18l-146 0c-20 0-28-16-43-29-52-51-105-105-159-158-10-11-26-21-28-39l0-2c0-13 10-21 18-26 46-46 87-87 133-133 10-10 15-18 28-18 15 0 26 13 33 23 57 56 110 110 164 167 10 10 21 17 26 30 2 10 2 26 2 41z m-18-121c-2-10-15-20-25-28-57-56-110-110-169-169-5-5-10-10-16-13-7 0-18 13-23 18-41 41-79 80-120 121-5 5-18 15-18 23 0 5 8 10 13 15 59 59 113 113 171 172 8 7 18 23 31 23 21 2 54 0 80 0l38 0c10 2 28 2 33 0 8-5 5-23 5-36l0-82c0-18 3-31 0-44z m-66 136c-16-3-28-13-31-31-3-23 13-38 33-38 16 0 39 10 39 36 0 20-18 36-41 33z m-10-41c-6 13 2 23 15 26 8 0 15-5 18-13 5-28-28-28-33-13z"/>
<glyph glyph-name="thing-arrow-right" unicode="&#113;" d="M335 259c0 0 0 2 0 2 0 0 0 0 0 3 0 2 0 2 0 5l-87 176c-5 8-12 11-20 8-5-5-8-15-5-23l82-169-82-169c-3-8 0-18 5-20 8-5 15 0 18 7l87 177c2 0 2 3 2 3z"/>
<glyph glyph-name="user" unicode="&#114;" d="M438 74c0-2 0-2 0 0-13-2-23-2-36-2 0 43-18 74-38 97-21 23-54 41-95 43-44 3-80-12-103-35-28-26-48-57-51-108-13 0-23 0-36 0 0 0 0 0 0 3 5 84 49 133 110 161-46 28-74 97-46 156 18 39 59 72 116 72 56 0 94-33 112-72 10-23 16-49 10-77-7-33-28-61-53-79 61-28 102-77 110-159z m-269 279c-8-43 15-74 33-89 28-21 69-21 100-3 28 15 49 46 44 87-3 21-13 39-26 51-18 18-41 31-77 26-38-5-69-33-74-72z"/>
<glyph glyph-name="arrow-right-categproes" unicode="&#98;" d="M364 266c0-7 0-13 0-20-3-8-8-10-13-16-39-38-77-76-115-112-3-3-6-5-8-8-5-5-8-8-16-10 0 0-2 0-2 0-8 2-13 8-21 13-5 5-12 10-15 18 0 0 0 2 0 2 0 5 5 8 8 13 25 26 51 51 77 77 5 5 10 10 12 13 5 5 8 10 11 17 2 8-3 16-6 21-5 5-10 10-15 13-25 25-51 51-77 77 3 5-2 7-2 10-5 10 0 15 5 18 5 5 8 7 13 12 5 3 7 6 15 8 0 0 3 0 3 0 7-2 10-5 12-10 39-38 75-74 113-110 3-3 5-5 8-8 7-8 13-10 13-18z"/>
<glyph glyph-name="blog-likes" unicode="&#106;" d="M294 461c3 0 8 0 11 0 28-8 48-59 35-97-7-21-23-34-28-49 16-5 34-3 52-3 17 0 38 0 51-5 25-10 43-51 23-74 15-18 10-46-5-59 12-20 0-43-13-54 18-59-67-61-113-66-7 0-15 0-23 0-41 5-72 18-112 20-11-13-31-10-54-10-13 0-28 0-36 3-18 7-15 28-15 56 0 28 0 56 0 84 0 13-3 31 0 41 5 21 25 18 51 18 13 0 25 0 36 0 7 0 12-5 15-7 26 17 23 46 38 71 5 10 13 18 21 26 8 8 18 13 23 23 8 10 10 23 13 36 7 18 5 43 30 46z m0-384c21 0 39 2 57 7 15 3 43 8 46 18 0 6-5 16-3 23 3 11 16 18 18 29 0 7-8 15-8 23 0 10 18 20 18 30 0 8-12 18-12 29 0 10 12 20 12 30 0 8-10 16-15 21-26 7-61 0-90 2-15 3-30 11-33 26-2 25 23 41 31 64 5 20-3 46-15 59 0 0 0 0-3 0 0 0-3 0-3-3-5-25-7-46-18-66-10-18-33-31-46-52-7-10-10-25-15-38-5-13-13-23-20-33-6-5-18-10-18-16-3-7 0-23 0-33 0-33 0-66 0-97 43-3 71-23 117-23z m-202 10c21 0 39 0 59 0 0 49 0 100 0 149-20 0-38 0-59 0 0-49 0-98 0-149z"/>
<glyph glyph-name="category-icon" unicode="&#115;" d="M38 100l52 0 0 51-52 0z m103 307l0-51 333 0 0 51z m0-179l333 0 0 51-333 0z m0-128l333 0 0 51-333 0z m-103 128l52 0 0 51-52 0z m0 128l52 0 0 51-52 0z"/>
<glyph glyph-name="mail" unicode="&#116;" d="M486 320c0 20 3 51-2 69-5 15-23 26-41 28l-371 0c-26-2-36-13-41-28-8-20-5-49-5-69l0-138c0-23-3-51 2-67 10-31 36-31 80-31l296 0c18 0 36-2 49 3 13 3 26 13 31 23 8 15 2 46 2 69z m-46-195l-368 0 0 246c0 0 0 3 0 3l366 0 0-249z m-43 182c5 3 18 10 18 13 5 13-3 28 0 38-51-25-105-58-159-89-54 31-108 61-161 92l0-41c53-31 107-61 161-92 44 25 95 54 141 79z"/>
<glyph glyph-name="map-pointer" unicode="&#117;" d="M264 448l-16 0c-43-5-74-18-100-44-23-23-43-58-40-102 2-56 30-97 56-136 28-38 56-74 89-102 54 54 116 115 139 197 36 105-36 179-128 187z m112-151c-2-46-28-82-48-110-16-23-34-44-54-67-5-5-15-20-18-20-3 0-15 15-20 20-31 36-59 72-82 118-13 26-26 64-16 102 13 44 51 80 110 85 36 3 67-10 87-28 26-23 46-54 41-100z m-128 74c-23-5-41-15-48-31-3-5-11-25-11-38 3-59 85-79 121-36 18 21 20 57 5 77-13 15-36 31-67 28z m-12-97c-11 5-21 20-21 33 0 23 18 36 33 39 26 5 49-13 49-39 0-36-38-46-61-33z"/>
<glyph glyph-name="newsletter" unicode="&#118;" d="M343 49c-3 0-3 0 0 0-13 5-20 15-28 25-28 28-56 54-85 80-18-21-35-41-53-64-3-3-13-21-23-18-8 2-6 15-3 25 3 31 5 62 10 90-28 10-56 18-89 28-8 3-26 5-26 15 0 8 15 13 21 18 117 64 233 126 348 190 5 2 20 13 28 10 5-3 0-18 0-26-31-120-59-235-87-353-5-5-8-20-13-20z m-271 187c23-8 46-16 69-24 7-2 20-7 25-7 3 0 8 7 13 10 59 46 110 90 169 136 8 5 21 20 28 20 13-2 3-15 0-20-46-62-89-123-133-185 31-28 62-58 90-87 2-2 2-5 5-5 28 118 59 236 87 351-118-64-236-125-353-189z m123-29c-6-5-18-12-18-18-3-5-3-15-3-20-2-23-5-41-8-64 62 61 113 141 164 210-43-33-92-72-135-108z"/>
<glyph glyph-name="close-remove" unicode="&#119;" d="M448 100l-156 156 153 156-30 31-156-154-154 154-33-31 156-156-156-156 33-31 154 154 156-154z"/>
<glyph glyph-name="payment" unicode="&#120;" d="M128 279c0-15 0-28 10-31 8-2 21 0 34 0l199 0c18 0 36-2 41 11 5 10 3 33 3 46l0 89c0 23 5 54-18 57l-254 0c-20-3-15-34-15-57z m15 151c0 3 0 3 0 0l254 3 0-169-254 0z m174-15c-10 5-28 2-41 2-15 0-33 0-46 0-7-2-18-7-18-20-2-28 34-23 59-23 16 0 34-3 46 0 16 5 18 33 0 41z m-23-26l-23 0c-15 0-33-2-43 3 0 2 0 5 2 7l64 0c6 0 16 3 18-2 3-8-10-8-18-8z m118-202c-2 20-31 20-48 13-3 0-3 5-6 5-7 10-28 7-43 2-15-5-33-18-49-28-5-2-13-10-15-10-5 0-18 5-23 8-8 5-16 15-21 20-12 10-30 15-53 15-26 0-44-7-64-17-8-3-18-8-29-13-5-3-23-8-20-18 3-10 13-3 23 0 10 5 13 5 23 10 15 8 31 15 46 21 18 5 46 0 56-6 16-7 18-17 31-25 21-13 51-16 82-18 10 0 21-3 21-13 0-13-18-13-36-13-28 0-54 0-77 5-10 3-23 6-23-5 0-7 13-10 20-12 23-6 69-8 95-6 15 0 21 6 31 13 15 10 31 21 46 31 13 10 31 26 51 28 8 3 15 0 18-8 0-7-10-18-18-20-43-31-90-62-136-90-10-5-18-12-30-15-16 0-26 5-36 10-21 10-39 21-59 31-10 5-23 15-38 13-11-3-16-8-26-13-3 0-18-5-15-15 0-16 20 0 25 2 5 3 13 10 21 10 10 0 25-10 36-15 12-5 20-10 33-18 20-10 46-28 77-15 15 7 33 18 46 28 30 20 59 38 89 59 18 10 41 23 44 46l0 5c2 26-31 31-49 18z m-95-18c-2-3-7-8-10-8-7-2-18 3-28 3 18 8 36 28 56 31 5 0 13 0 13-6-5-5-18-12-31-20z m64 0c-15-10-30-23-46-31-2 5-5 10-10 16 10 7 21 15 31 23 10 7 23 15 38 10 5-10-7-13-13-18z"/>
<glyph glyph-name="arrow-down-search" unicode="&#121;" d="M425 320l-21 23c-5 8-15 8-23 0l-125-115-125 118c-8 5-16 5-23 0l-21-23c-5-8-5-18 0-23l146-141 8-11c5-7 15-7 23 0l156 149c10 5 10 15 5 23z"/>
<glyph glyph-name="list-view-small" unicode="&#122;" d="M466 136l-410 0c-20 0-38-18-38-39 0-20 18-38 38-38l410 0c20 0 38 18 38 38 0 21-18 39-38 39z m-410 230l410 0c20 0 38 18 38 38 0 21-18 39-38 39l-410 0c-20 0-38-18-38-39 0-20 15-38 38-38z m410-26l-410 0c-20 0-38-17-38-38 0-20 18-38 38-38l410 0c20 0 38 18 38 38 0 21-18 38-38 38z m0-102l-410 0c-20 0-38-18-38-38 0-21 18-39 38-39l410 0c20 0 38 18 38 39 0 20-18 38-38 38z"/>
<glyph glyph-name="list-view-medium" unicode="&#65;" d="M461 148l-282 0c-20 0-38-17-38-38 0-20 18-38 38-38l282 0c20 0 38 18 38 38 0 21-18 38-38 38z m-410 308c-20 0-38-18-38-39 0-20 18-38 38-38 21 0 39 18 39 38 0 21-18 39-39 39z m128-77l282 0c20 0 38 18 38 38 0 21-18 39-38 39l-282 0c-20 0-38-18-38-39 0-20 18-38 38-38z m-128-26c-20 0-38-18-38-38 0-21 18-39 38-39 21 0 39 18 39 39 0 20-18 38-39 38z m410 0l-282 0c-20 0-38-18-38-38 0-21 18-39 38-39l282 0c20 0 38 18 38 39 0 20-18 38-38 38z m-410-102c-20 0-38-18-38-39 0-20 18-38 38-38 21 0 39 18 39 38 0 21-18 39-39 39z m410 0l-282 0c-20 0-38-18-38-39 0-20 18-38 38-38l282 0c20 0 38 18 38 38 0 21-18 39-38 39z m-410-103c-20 0-38-17-38-38 0-20 18-38 38-38 21 0 39 18 39 38 0 21-18 38-39 38z"/>
<glyph glyph-name="transport" unicode="&#66;" d="M486 259c0 7-5 15-7 23-8 23-18 48-26 71-41 0-84 0-125 0 0 18 0 39 0 57-100 0-203 0-302 0 0-11 0-18 0-29 92 0 181 0 274 0 0-69 0-140 0-209-29 0-59 0-88 0-10 46-79 56-104 15-6-3-6-10-8-15-5 0-13 0-16 0 0 23 0 46 0 69-10 0-17 0-28 0 0-34 0-64 0-98 16 0 31 0 46 0 8-35 54-53 87-33 11 8 18 21 23 33 41 0 80 0 121 0 7-25 36-48 69-41 20 6 33 21 41 41 15 0 31 0 46 0 0 21 0 39 0 57-3 20 0 41-3 59z m-358-111c-8 18 5 36 23 39 13 2 28-5 31-15 13-39-41-57-54-24z m230 0c-7 21 6 36 23 39 18 2 34-10 34-28 0-31-46-39-57-11z m98 24c-5 0-11 0-16 0-7 30-46 53-79 35-10-5-18-12-23-20-3-5-5-10-8-15-2 48 0 102 0 151 0 0 0 2 0 2 36 0 69 0 105 0 5-10 8-23 13-36 5-13 10-25 13-36 0-25-8-51-5-81z m-287 181c-44 0-85 0-128 0-3-7 0-18 0-28 43 0 87 0 128 0 0 10 0 21 0 28z m-28-84c0 10 0 18 0 28-28 0-57 0-85 0-2-8 0-18 0-28 28 0 57 0 85 0z"/>
</font>
</defs>
</svg>
